Welcome Guest ( Log In | Register )

> Releases Upload / Добавление релизов

Добавить релиз тут / Click here to add release
Рекомендованные обменники / Recommended file shares

> Empire Of Tharaphita - Distant Echoes Through Blood Infinite [compilation] (2018), Black Metal
post May 4 2021, 17:48:59
Post #1

Правь статус, ####!111
**************
Group: Металариец
Posts: 2,255
Releases: 1810
From: Praha
On Forums: 7 years 1 month
Thanks: 47754 time(s)
Czech Republic


(IMG:http://metalarea.org/images/audiocovers/2021_May/acov_tid350440_thumb.jpg)

*Artist: Empire Of Tharaphita
*Album: Distant Echoes Through Blood Infinite [compilation]
*Year: 2018
*Genre: Black Metal
*Country: Finland (IMG:http://metalarea.org/forum/style_images/flags/Finland.png)
*Format: mp3@CBR320kbps
*Size: 163MB

Tracklist:
1. Beyond The Astral Seas - Kältas Ekwä 6:37
2. Golden Pillar Of The Northern Star 4:31
3. Nightly Veils Reveal The One 5:09
4. Lunar Cult Empire 6:01
5. Wandering The Garden Of Stars 8:33
6. Opening Of The Bounded Serpent 10:04
7. Gates To The Realm Of Tharaphita 7:54
8. Beyond The Astral Seas - Kältas Ekwä 6:13
9. Nightly Veils Reveal The One 5:25
10. The Star Obsessed Spirit 5:58
11. The Star Obsessed Spirit 4:10
******************************
Total playing time: 1:10:35

Extended info
Out of the Dungeon ‎– DUNGEON002
pre-Mooncitadel


Technical info
(IMG:http://metalarea.org/images/spectrogram/2021_May/cfcdb559c904526eea85337efb371a5c.png)
Input File: 06. Opening of the Bounded Serpent.mp3
Channels : 2
Sample Rate : 44100
Precision : 16-bit
Duration : 00:10:04.35 = 26651967 samples = 45326.5 CDDA sectors
File Size : 24.3M
Bit Rate : 322k
Sample Encoding: MPEG audio (layer I, II or III)
Comments :
Title=Opening of the Bounded Serpent
Artist=Empire of Tharaphita
Album=Distant Echoes Through Blood Infinite
Tracknumber=06/11
Year=2018
Genre=Black Metal
Discnumber=1



Register


Go to the top of the page
  Insert nick Quick quote
+Quote Post
 
Start new topic
Replies (1 - 2)
post May 4 2021, 18:16:24
Post #2

the faceless one
Group Icon
Group: S-moderation team
Posts: 9,396
Releases: 1938
On Forums: 12 years 9 months
Thanks: 117631 time(s)
Russian Federation


Отражение -
Register


Go to the top of the page
  Insert nick Quick quote
+Quote Post
post May 5 2021, 16:28:18
Post #3

While Waiting the Worms
**********
Group: Металариец
Posts: 1,295
Releases: 0
On Forums: 7 years 4 months
Thanks: 1915 time(s)
Unknown




"Path Of The Old Lunar Cult Empire" - 2009 ( Split w/ Drowning The Light )
- Beyond The Astral Seas - Kältas Ekwä
- Golden Pillar Of The Northern Star
- Nightly Veils Reveal The One
- Lunar Cult Empire

"Dreams From The Forgotten Worlds..." - 2008 - DEMO II
- Wandering The Garden Of Stars
- Opening Of The Bounded Serpent
- Gates to the Realm of Tharaphita

"Drowned To The Stream Of Eternity" - 2008 - DEMO I
- Beyond the Astral Seas - Kältas Ekwä
- Nightly Veils Reveal The One
- The Star Obsessed Spirit

"Rehearsal Session" - 2007
- The Star Obsessed Spirit
Go to the top of the page
  Insert nick Quick quote
+Quote Post

Reply to this topicStart new topic
2 User(s) are reading this topic (2 Guests and 0 Anonymous Users)
0 Members:

 



- Lo-Fi Version Support form
Copyrights and abuse reports form
Time is now: 18th May 2021 - 02:49:55