Welcome Guest ( Log In | Register )

> Solstice - Casting The Die (2021), Thrash/Death Metal
post May 4 2021, 18:15:02
Post #1

Правь статус, ####!111
**************
Group: Металариец
Posts: 26,723
Releases: 19288
From: Г.Харьков
On Forums: 9 years 2 months
Thanks: 385773 time(s)
Unknown


(IMG:https://metalarea.org/images/audiocovers/2021_May/acov_tid350441_thumb.jpg)

*Artist: Solstice
*Album: Casting The Die
*Year: 2021
*Genre: Thrash/Death Metal
*Country: United States (IMG:https://metalarea.org/forum/style_images/flags/United%20States.png)
*Format: mp3@CBR320kbps
*Size: 97MB

Tracklist:
1. The Altruist 03:36
2. Transparent 03:26
3. Who Bleeds Whom 04:35
4. Lifeline 03:53
5. Ignite 03:31
6. Outlast 03:04
7. Seven 03:09
8. Embellishment Exposed 03:43
9. Cast the Die 04:02
10. Eyes Sewn Shut 04:03
11. Scratch 04:41
******************************
Total playing time: 41:43




Extended info
Alex Marquez Drums
Dennis Munoz Guitars
Ryan Taylor Vocals, Guitars
Marcel Salas Bass



Technical info
(IMG:https://metalarea.org/images/spectrogram/2021_May/818f4d4fd1d4752848f0a062164c2488.png)
Input File: Solstice - Casting The Die - 10 Eyes Sewn Shut.mp3
Channels : 2
Sample Rate : 44100
Precision : 16-bit
Duration : 00:04:03.11 = 10721063 samples = 18233.1 CDDA sectors
File Size : 9.89M
Bit Rate : 325k
Sample Encoding: MPEG audio (layer I, II or III)
Comments :
Title=Eyes Sewn Shut
Artist=Solstice
Album=Casting The Die
Tracknumber=10
Year=2021



Register


Go to the top of the page
  Insert nick Quick quote
+Quote Post
 
Start new topic
Replies (1 - 6)
post May 4 2021, 18:30:38
Post #2

Правь статус, ####!111
**************
Group: Металариец
Posts: 26,723
Releases: 19288
From: Г.Харьков
On Forums: 9 years 2 months
Thanks: 385773 time(s)
Unknown


FLAC (Tracks) 274 mb
Register


Go to the top of the page
  Insert nick Quick quote
+Quote Post
post May 6 2021, 06:48:42
Post #3

И Ван Дамм По Делам Вашим!
**************
Group: Металариец
Posts: 20,031
Releases: 26
On Forums: 13 years 1 month
Thanks: 11300 time(s)
Honduras


Альбом из розряда послушал-забыл.
Go to the top of the page
  Insert nick Quick quote
+Quote Post
post May 6 2021, 08:44:08
Post #4

Пять Литров
*****
Group: Металариец
Posts: 497
Releases: 0
From: Ташкент
On Forums: 13 years 5 months
Thanks: 160 time(s)
Uzbekistan


По любому мастерство не пропьёшь. Играть умеют. Остальное дело вкуса.


Thanks:
Go to the top of the page
  Insert nick Quick quote
+Quote Post
post May 6 2021, 15:38:06
Post #5

ЗмееЛев
********
Group: Металариец
Posts: 876
Releases: 18
On Forums: 10 years 3 months
Thanks: 2032 time(s)
Russian Federation


Ни чё такой альбом выдали ветераны. Бодрячком, с неплохими соло. Как сказали выше - мастерство не пропьёшь. Группа никогда звёзд с неба не хватала, но выдавала стабильно крепкий материал. Вот и здесь не плохо получилось. Мне понравилось, а остальное, дело вкуса, да.
Go to the top of the page
  Insert nick Quick quote
+Quote Post
post May 10 2021, 12:53:40
Post #6

Добрейшей души Мегаманьяк
***********
Group: Металариец
Posts: 1,892
Releases: 0
From: Bashkortostan, Өфө
On Forums: 13 years 5 months
Thanks: 928 time(s)
Russian Federation


Да ваще отлично. Переслушаю-ка все их полноформаты.


Thanks:
Go to the top of the page
  Insert nick Quick quote
+Quote Post
post Jul 4 2021, 14:03:28
Post #7

Сектант технодро4чер
**************
Group: Металариец
Posts: 5,584
Releases: 143
From: Тимчасово окупована територія
On Forums: 12 years 11 months
Thanks: 5960 time(s)
Ukraine


Очень хорошо.
Go to the top of the page
  Insert nick Quick quote
+Quote Post

Reply to this topicStart new topic
1 User(s) are reading this topic (1 Guests and 0 Anonymous Users)
0 Members:

 



- Lo-Fi Version Support form
Copyrights and abuse reports form
Time is now: 31st July 2021 - 08:11:50