Welcome Guest ( Log In | Register )

> Skinless Bride - Rotting Carcass [ep] (2021), Death Metal
post May 4 2021, 20:23:18
Post #1

Правь статус, ####!111
**************
Group: Металариец
Posts: 26,764
Releases: 19324
From: Г.Харьков
On Forums: 9 years 2 months
Thanks: 386861 time(s)
Unknown


(IMG:https://metalarea.org/images/audiocovers/2021_May/acov_tid350445_thumb.jpg)

*Artist: Skinless Bride
*Album: Rotting Carcass [ep]
*Year: 2021
*Genre: Death Metal
*Country: Netherlands (IMG:https://metalarea.org/forum/style_images/flags/Netherlands.png)
*Format: mp3@CBR320kbps
*Size: 47MB

Tracklist:
1. Metamorfleshed 05:33
2. Rotting Carcass 03:57
3. Sore Open Wound 02:13
4. Scavenger's Daughter 05:12
5. They Scream to None 03:45
******************************
Total playing time: 20:40



Extended info
Count Azathoth Everything (2019-present)
See also: Svarte Fjell, ex-Kraggsygh, ex-Funeral of Extermination, ex-Goddess of Decay


Technical info
(IMG:https://metalarea.org/images/spectrogram/2021_May/034408553adc28de20d23335dfa7d283.png)
Input File: 04. Scavenger\'s Daughter.mp3
Channels : 2
Sample Rate : 44100
Precision : 16-bit
Duration : 00:05:12.16 = 13766124 samples = 23411.8 CDDA sectors
File Size : 12.5M
Bit Rate : 320k
Sample Encoding: MPEG audio (layer I, II or III)
Comments :
Title=Scavenger's Daughter
Artist=Skinless Bride
Album=Rotting Carcass
Tracknumber=04
Year=2021



Register


Go to the top of the page
  Insert nick Quick quote
+Quote Post
 
Start new topic
Replies (1 - 1)
post May 12 2021, 17:54:33
Post #2

brutalcesar
**************
Group: Металариец
Posts: 18,236
Releases: 71
From: Рязань
On Forums: 12 years 6 months
Thanks: 10294 time(s)
Russian Federation


Весьма и весьма посредственно
Go to the top of the page
  Insert nick Quick quote
+Quote Post

Reply to this topicStart new topic
1 User(s) are reading this topic (1 Guests and 0 Anonymous Users)
0 Members:

 



- Lo-Fi Version Support form
Copyrights and abuse reports form
Time is now: 5th August 2021 - 18:12:10