Welcome Guest ( Log In | Register )

> Releases Upload / Добавление релизов

Добавить релиз тут / Click here to add release
Рекомендованные обменники / Recommended file shares

 
Reply to this topicStart new topic
> Skadalv - Demo Ii [demo] (2021), Raw Black Metal
post May 4 2021, 23:15:52
Post #1

Malum dominus omnium
****
Group: Металариец
Posts: 364
Releases: 275
On Forums: 1 year 3 months
Thanks: 5496 time(s)
Vatican City


(IMG:https://metalarea.org/images/audiocovers/2021_May/acov_tid350448_thumb.jpg)

*Artist: Skadalv
*Album: Demo Ii [demo]
*Year: 2021
*Genre: Raw Black Metal
*Country: United States (IMG:https://metalarea.org/forum/style_images/flags/United%20States.png)
*Format: mp3@CBR320kbps
*Size: 27MB

Tracklist:
1. Ruinous Conjury 06:03
2. Cursed Hallucinations 05:16
******************************
Total playing time: 11:19


Metal Archives

Technical info
(IMG:https://metalarea.org/images/spectrogram/2021_May/21d01f76bb1b7aa158520cb5456cdcb7.png)
Input File: Skadalv - Ruinous Conjury.mp3
Channels : 2
Sample Rate : 48000
Precision : 16-bit
Duration : 00:06:03.34 = 17440512 samples ~ 27250.8 CDDA sectors
File Size : 14.5M
Bit Rate : 320k
Sample Encoding: MPEG audio (layer I, II or III)
Comments :
Title=Ruinous Conjury
Artist=Skadalv
Album=Demo II
Tracknumber=1
Year=2021
Genre=Raw Black Metal



Register


Go to the top of the page
  Insert nick Quick quote
+Quote Post

Reply to this topicStart new topic
2 User(s) are reading this topic (2 Guests and 0 Anonymous Users)
0 Members:

 



- Lo-Fi Version Support form
Copyrights and abuse reports form
Time is now: 19th June 2021 - 10:23:05