Welcome Guest ( Log In | Register )

> Releases Upload / Добавление релизов

Добавить релиз тут / Click here to add release
Рекомендованные обменники / Recommended file shares

> Vardok Nalt - Minner Dekket Av Tåke (2021), Depressive Black Metal
post May 5 2021, 00:32:17
Post #1

Правь статус, ####!616
**************
Group: Металариец
Posts: 6,347
Releases: 4838
From: 55°35’N 38°08’E
On Forums: 12 years 11 months
Thanks: 89398 time(s)
Unknown


(IMG:https://metalarea.org/images/audiocovers/2021_May/acov_tid350450_thumb.jpg)

*Artist: Vardok Nalt
*Album: Minner Dekket Av Tåke
*Year: 2021
*Genre: Depressive Black Metal
*Country: Norway (IMG:https://metalarea.org/forum/style_images/flags/Norway.png)
*Format: mp3@CBR320kbps
*Size: 91MB

Tracklist:
1.Skogens Skald 02:19
2.Månekvaden 07:14
3.I Vinternatten 05:40
4.Rosedansen 06:55
5.Til Valhall Vi Danser 02:08
6.Vi Skal Aldri Sees Igjen 07:34
7.Piruetterende Kaos Bak En Lukket Dør 07:16
******************************
Total playing time: 39:06



Technical info
(IMG:https://metalarea.org/images/spectrogram/2021_May/d9994637a863382ffb18318476b84498.png)
Input File: 01 Skogens Skald.mp3
Channels : 2
Sample Rate : 44100
Precision : 16-bit
Duration : 00:02:19.71 = 6161343 samples = 10478.5 CDDA sectors
File Size : 5.70M
Bit Rate : 327k
Sample Encoding: MPEG audio (layer I, II or III)
Comments :
Title=Skogens Skald
Artist=Vardok Nalt
Album=Minner Dekket Av Tåke
Tracknumber=1
Year=2021
Genre=Black Metal



Register


Go to the top of the page
  Insert nick Quick quote
+Quote Post
 
Start new topic
Replies (1 - 1)
post May 5 2021, 14:37:08
Post #2

I hate you all
**************
Group: Металариец
Posts: 2,595
Releases: 82
From: Ukraine
On Forums: 14 years 1 month
Thanks: 6612 time(s)
Ukraine


Go to the top of the page
  Insert nick Quick quote
+Quote Post

Reply to this topicStart new topic
1 User(s) are reading this topic (1 Guests and 0 Anonymous Users)
0 Members:

 



- Lo-Fi Version Support form
Copyrights and abuse reports form
Time is now: 18th June 2021 - 00:49:34