Welcome Guest ( Log In | Register )

> Releases Upload / Добавление релизов

Добавить релиз тут / Click here to add release
Рекомендованные обменники / Recommended file shares

 
Reply to this topicStart new topic
> Of His Work & Elegy - Demo I: The Primordial Spawn [demo] (2021), Raw Black Metal
post May 5 2021, 14:21:40
Post #1

Правь статус, ####!616
**************
Group: Металариец
Posts: 6,346
Releases: 4838
From: 55°35’N 38°08’E
On Forums: 12 years 11 months
Thanks: 89394 time(s)
Unknown


(IMG:https://metalarea.org/images/audiocovers/2021_May/acov_tid350465_thumb.jpg)

*Artist: Of His Work & Elegy
*Album: Demo I: The Primordial Spawn [demo]
*Year: 2021
*Genre: Raw Black Metal
*Country: Unknown (IMG:https://metalarea.org/forum/style_images/flags/Unknown.png)
*Format: mp3@CBR320kbps
*Size: 58MB

Tracklist:
1.I: The Zealot Star 11:58
2.II: The Raging Star 07:13
3.III: The Falling Star 06:13
******************************
Total playing time: 25:24

(IMG:https://metalarea.org/images/youtube.png)


Technical info
(IMG:https://metalarea.org/images/spectrogram/2021_May/ac216a33760360d29165217bb02f4fe7.png)
Input File: 01 I -The Zealot Star.mp3
Channels : 2
Sample Rate : 44100
Precision : 16-bit
Duration : 00:11:58.54 = 31687614 samples = 53890.5 CDDA sectors
File Size : 28.8M
Bit Rate : 320k
Sample Encoding: MPEG audio (layer I, II or III)
Comments :
Title=I: The Zealot Star
Artist=Of His Work & Elegy
Album=Demo I: The Primordial Spawn
Tracknumber=1
Year=2021
Genre=Black Metal



Register


Go to the top of the page
  Insert nick Quick quote
+Quote Post

Reply to this topicStart new topic
1 User(s) are reading this topic (1 Guests and 0 Anonymous Users)
0 Members:

 



- Lo-Fi Version Support form
Copyrights and abuse reports form
Time is now: 18th June 2021 - 00:11:20