Welcome Guest ( Log In | Register )

> Seizure - Born In The Dark (2021), Thrash Metal
post May 5 2021, 21:51:11
Post #1

Правь статус, ####!111
**************
Group: Металариец
Posts: 26,710
Releases: 19250
From: Г.Харьков
On Forums: 9 years 2 months
Thanks: 385183 time(s)
Unknown


(IMG:https://metalarea.org/images/audiocovers/2021_May/acov_tid350477_thumb.jpg)

*Artist: Seizure
*Album: Born In The Dark
*Year: 2021
*Genre: Thrash Metal
*Country: United States (IMG:https://metalarea.org/forum/style_images/flags/United%20States.png)
*Format: mp3@CBR320kbps
*Size: 91MB

Tracklist:
1. Judgement 01:11
2. Phantasm 05:22
3. Born in the Dark 02:07
4. Crystal Ball 04:16
5. The Message 04:18
6. Dear Boss / From Hell 05:07
7. Holy Relics 03:53
8. Hunting Season 04:42
9. Lowlife 03:56
10. Djinn's Curse 05:30
******************************
Total playing time: 40:22



Extended info
Ezra Behrens Bass
Ira Black IV Guitars
Joey Love Guitars, Vocals
See also: ex-Phantasm
Justin Pittman Drums (2019-present)
See also: Indisposed



Technical info
(IMG:https://metalarea.org/images/spectrogram/2021_May/9980a09bad78886f6d77972853ba7077.png)
Input File: 06 - Dear Boss_From Hell.mp3
Channels : 2
Sample Rate : 44100
Precision : 16-bit
Duration : 00:05:07.66 = 13567674 samples = 23074.3 CDDA sectors
File Size : 12.3M
Bit Rate : 320k
Sample Encoding: MPEG audio (layer I, II or III)
Comments :
Title=Dear Boss From Hell
Artist=Seizure
Album=Born in the Dark
Tracknumber=6
Year=2021
Genre=Thrash Metal



Register


Go to the top of the page
  Insert nick Quick quote
+Quote Post
 
Start new topic
Replies (1 - 2)
post May 8 2021, 20:57:13
Post #2

Семь Литров
*******
Group: Металариец
Posts: 718
Releases: 0
From: Одесса-мама
On Forums: 12 years 6 months
Thanks: 251 time(s)
Ukraine


Спасибо!
(IMG:style_emoticons/default/gop_spb.gif)
Go to the top of the page
  Insert nick Quick quote
+Quote Post
post May 12 2021, 19:02:48
Post #3

brutalcesar
**************
Group: Металариец
Posts: 18,228
Releases: 71
From: Рязань
On Forums: 12 years 6 months
Thanks: 10280 time(s)
Russian Federation


Годно!
Go to the top of the page
  Insert nick Quick quote
+Quote Post

Reply to this topicStart new topic
1 User(s) are reading this topic (1 Guests and 0 Anonymous Users)
0 Members:

 



- Lo-Fi Version Support form
Copyrights and abuse reports form
Time is now: 29th July 2021 - 13:15:18