Welcome Guest ( Log In | Register )

> Releases Upload / Добавление релизов

Добавить релиз тут / Click here to add release
Рекомендованные обменники / Recommended file shares

> Gnaargakh - Erzleichnam [demo] (2021), Black Metal
post May 6 2021, 00:07:06
Post #1

Malum dominus omnium
****
Group: Металариец
Posts: 364
Releases: 275
On Forums: 1 year 3 months
Thanks: 5495 time(s)
Vatican City


(IMG:https://metalarea.org/images/audiocovers/2021_May/acov_tid350481_thumb.jpg)

*Artist: Gnaargakh
*Album: Erzleichnam [demo]
*Year: 2021
*Genre: Black Metal
*Country: Germany (IMG:https://metalarea.org/forum/style_images/flags/Germany.png)
*Format: mp3@CBR320kbps
*Size: 51MB

Tracklist:
1. Der Entwürdiger 04:26
2. Grabschänder 06:00
3. Feindspalter 04:47
4. Erzleichnam 06:21
******************************
Total playing time: 21:34


(IMG:https://metalarea.org/images/youtube.png)
Metal Archives

Technical info
(IMG:https://metalarea.org/images/spectrogram/2021_May/4ba26ed20433be4116f3d53eee28c3d1.png)
Input File: Gnaargakh - Der Entwürdiger.mp3
Channels : 2
Sample Rate : 48000
Precision : 16-bit
Duration : 00:04:23.29 = 12637824 samples ~ 19746.6 CDDA sectors
File Size : 10.5M
Bit Rate : 320k
Sample Encoding: MPEG audio (layer I, II or III)
Comments :
Title=Der Entwürdiger
Artist=Gnaargakh Bookmark
Album=Erzleichnam
Tracknumber=1
Year=2021
Genre=Black Metal



Register


Go to the top of the page
  Insert nick Quick quote
+Quote Post
 
Start new topic
Replies (1 - 2)
post May 6 2021, 04:51:52
Post #2

градусы контрастов
**************
Group: Металариец
Posts: 4,993
Releases: 0
On Forums: 5 years 4 months
Thanks: 3233 time(s)
Unknown


оу ее!
вечная тенденция сабжевого стиля, у тех, кто выпускает одни демки (как правило) творческий потенциал всегда работает как надо, но когда это переростает в жадность творца - на выходе имеем лишь посредственность( на примере венгерского Estve этого года).
но у сабжа с потенциалом все в порядке и зачатков жадности пока не видно, так что уважуха ему и зачет, снова отличный немецкий трублэк.
(IMG:style_emoticons/default/true_black.gif)


Thanks:
(1) SyncestrA,
Go to the top of the page
  Insert nick Quick quote
+Quote Post
post May 8 2021, 08:42:00
Post #3

градусы контрастов
**************
Group: Металариец
Posts: 4,993
Releases: 0
On Forums: 5 years 4 months
Thanks: 3233 time(s)
Unknown


всё таки поглубже была атмосфера в первой демке, а здесь материал более быстрый злой, но на четвёрочку.


Thanks:
(1) Sangreal,
Go to the top of the page
  Insert nick Quick quote
+Quote Post

Reply to this topicStart new topic
2 User(s) are reading this topic (2 Guests and 0 Anonymous Users)
0 Members:

 



- Lo-Fi Version Support form
Copyrights and abuse reports form
Time is now: 19th June 2021 - 09:31:55