Welcome Guest ( Log In | Register )

> Immortal Sÿnn - Force Of Habit (2021), Heavy Metal
post May 6 2021, 12:24:36
Post #1

Шесть Литров
******
Group: Металариец
Posts: 535
Releases: 481
On Forums: 3 months 1 day
Thanks: 11532 time(s)
United States


(IMG:http://metalarea.org/images/audiocovers/2021_May/acov_tid350510_thumb.jpg)

*Artist: Immortal Sÿnn
*Album: Force Of Habit
*Year: 2021
*Genre: Heavy Metal
*Country: United States (IMG:http://metalarea.org/forum/style_images/flags/United%20States.png)
*Format: mp3@CBR320kbps
*Size: 98MB

Tracklist:
01. Anamnesis
02. Fight The Prince
03. F.U.D.C.
04. The Ballad Of Marvin Heemeyer
05. The Mailman Song
06. Nuclear Terror
07. Satan's Tavern
08. Denver Nights
09. Force Of Habit
10. Whisley II: The Wrath Of Corn
******************************
Total playing time: 40:31

Technical info
(IMG:http://metalarea.org/images/spectrogram/2021_May/3db49da97cee4a29608f2ab80b49d111.png)
Input File: 02. Fight The Prince.mp3
Channels : 2
Sample Rate : 44100
Precision : 16-bit
Duration : 00:04:28.77 = 11852537 samples = 20157.4 CDDA sectors
File Size : 10.8M
Bit Rate : 322k
Sample Encoding: MPEG audio (layer I, II or III)
Comments :
Title=Fight the Prince
Artist=Immortal Sÿnn
Album=Force of Habit
Tracknumber=2
Year=2021-05-07
Genre=Alternative / Indie Rock / Metal
Discnumber=1



Register


Go to the top of the page
  Insert nick Quick quote
+Quote Post
 
Start new topic
Replies (1 - 4)
post May 7 2021, 08:09:38
Post #2

hearer & reader
**************
Group: Металариец
Posts: 9,814
Releases: 172
From: Moscow
On Forums: 13 years 10 months
Thanks: 11073 time(s)
Russian Federation


https://music.yandex.ru/album/13651561


Go to the top of the page
  Insert nick Quick quote
+Quote Post
post May 7 2021, 09:55:54
Post #3

Шесть Литров
******
Group: Металариец
Posts: 656
Releases: 0
On Forums: 12 years 3 weeks
Thanks: 167 time(s)
Ukraine


Хорошая группа,играющая хороший хэви-трэш легкоузнаваемой Американской школы!!!!!
Go to the top of the page
  Insert nick Quick quote
+Quote Post
post May 7 2021, 18:08:47
Post #4

MDM-Thrash Metal
**************
Group: Металариец
Posts: 10,489
Releases: 1257
From: Одесса
On Forums: 13 years 11 months
Thanks: 30650 time(s)
Ukraine




Неплохо, но хотелось бы вокал пожещщще!
Go to the top of the page
  Insert nick Quick quote
+Quote Post
post May 12 2021, 18:23:43
Post #5

brutalcesar
**************
Group: Металариец
Posts: 18,228
Releases: 71
From: Рязань
On Forums: 12 years 6 months
Thanks: 10280 time(s)
Russian Federation


Да, вокал бы мощнее!
Go to the top of the page
  Insert nick Quick quote
+Quote Post

Reply to this topicStart new topic
1 User(s) are reading this topic (1 Guests and 0 Anonymous Users)
0 Members:

 



- Lo-Fi Version Support form
Copyrights and abuse reports form
Time is now: 29th July 2021 - 12:35:31