Welcome Guest ( Log In | Register )

> Everlust - Diary Of Existence (2021), Gothic Metal
post May 6 2021, 22:12:27
Post #1

Правь статус, ####!111
**************
Group: Металариец
Posts: 28,186
Releases: 20579
From: Г.Харьков
On Forums: 9 years 6 months
Thanks: 419186 time(s)
Unknown


(IMG:https://metalarea.org/images/audiocovers/2021_May/acov_tid350533_thumb.jpg)

*Artist: Everlust
*Album: Diary Of Existence
*Year: 2021
*Genre: Gothic Metal
*Country: Latvia (IMG:https://metalarea.org/forum/style_images/flags/Latvia.png)
*Format: mp3@CBR320kbps
*Size: 109MB

Tracklist:
01. Gemini
02. Land Of Dreams
03. Running
04. Everlust
05. Writings On The Wall (Sam Smith Cover)
06. Despair
07. Alone
08. Entwined (feat. Matias Juselius)
09. I Never Was
10. Destroyer
11. 8
******************************
Total playing time: 47:11




Extended info


Technical info
(IMG:https://metalarea.org/images/spectrogram/2021_May/84791ea72a246c4203624ba9b07956e7.png)
Input File: 07 - Alone.mp3
Channels : 2
Sample Rate : 44100
Precision : 16-bit
Duration : 00:05:07.00 = 13538700 samples = 23025 CDDA sectors
File Size : 12.5M
Bit Rate : 325k
Sample Encoding: MPEG audio (layer I, II or III)
Comments :
Title=Alone
Artist=Everlust
Album=Diary of Existence
Tracknumber=7
Year=2021-07-05
Genre=Gothic / Doom Metal
Discnumber=1



Register


Go to the top of the page
  Insert nick Quick quote
+Quote Post
 
Start new topic
Replies (1 - 2)
post May 7 2021, 10:16:27
Post #2

Мегаманьяк
***********
Group: Металариец
Posts: 1,514
Releases: 0
From: Russian Federation - St.Petersburg
On Forums: 12 years 9 months
Thanks: 414 time(s)
Russian Federation


Не плохо! Послушаю внимательно. Медляки кайфовые! Кавер вещь! (IMG:style_emoticons/default/20.gif)


Go to the top of the page
  Insert nick Quick quote
+Quote Post
post May 8 2021, 06:22:57
Post #3

Шесть Литров
******
Group: Металариец
Posts: 634
Releases: 0
From: Лыткарино
On Forums: 2 years 6 months
Thanks: 167 time(s)
Russian Federation


Очень шаблонно и скучно, местами даже глуповато звучит.
Go to the top of the page
  Insert nick Quick quote
+Quote Post

Reply to this topicStart new topic
2 User(s) are reading this topic (2 Guests and 0 Anonymous Users)
0 Members:

 



- Lo-Fi Version Support form
Copyrights and abuse reports form
Time is now: 6th December 2021 - 00:35:51