Welcome Guest ( Log In | Register )

> Wretched Incarnate - Wretched Incarnate (2021), Old School Death Metal
post May 7 2021, 02:17:41
Post #1

Правь статус, ####!111
**************
Group: Металариец
Posts: 26,644
Releases: 19190
From: Г.Харьков
On Forums: 9 years 2 months
Thanks: 384007 time(s)
Unknown


(IMG:https://metalarea.org/images/audiocovers/2021_May/acov_tid350545_thumb.jpg)

*Artist: Wretched Incarnate
*Album: Wretched Incarnate
*Year: 2021
*Genre: Old School Death Metal
*Country: United Kingdom (IMG:https://metalarea.org/forum/style_images/flags/United%20Kingdom.png)
*Format: mp3@CBR320kbps
*Size: 58MB

Tracklist:
01. Silenced
02. Mask of Lies
03. Narcissistic Siren
04. Hypodermic Syringe Theory
05. Psycho Sanity
06. Ravenous
07. Creatures of the Underworld
08. Purgatory
09. Undeathly Conception
10. Treachery
******************************
Total playing time: 24:55




Technical info
(IMG:https://metalarea.org/images/spectrogram/2021_May/b2c90f8faf3144183e8f6ea7a4e3e259.png)
Input File: 08 - Purgatory.mp3
Channels : 2
Sample Rate : 44100
Precision : 16-bit
Duration : 00:03:15.00 = 8599500 samples = 14625 CDDA sectors
File Size : 7.90M
Bit Rate : 324k
Sample Encoding: MPEG audio (layer I, II or III)
Comments :
Title=Purgatory
Artist=Wretched Incarnate
Album=Wretched Incarnate
Tracknumber=8
Year=2021-05-07
Genre=Metal
Discnumber=1



Register


Go to the top of the page
  Insert nick Quick quote
+Quote Post
 
Start new topic
Replies (1 - 3)
post May 7 2021, 05:21:12
Post #2

Правь статус, ####!111
**************
Group: Металариец
Posts: 26,644
Releases: 19190
From: Г.Харьков
On Forums: 9 years 2 months
Thanks: 384007 time(s)
Unknown


FLAC (Tracks) 189 mb
Register


Go to the top of the page
  Insert nick Quick quote
+Quote Post
post May 7 2021, 10:12:31
Post #3

кручу наждак
**************
Group: Металариец
Posts: 5,048
Releases: 104
From: Самара
On Forums: 11 years 2 months
Thanks: 4076 time(s)
Russian Federation


Прекраснейший олдскульный дэт американского разлива.
Абсолютно ничего лишнего, только кач и башкотряс.
Go to the top of the page
  Insert nick Quick quote
+Quote Post
post May 7 2021, 22:39:16
Post #4

De Mysteriis Dom Sathanas
**************
Group: Металариец
Posts: 4,229
Releases: 63
From: Doom
On Forums: 13 years 1 week
Thanks: 3629 time(s)
Russian Federation


Ван-мэн в дэте такое себе, барабаны сто пудов электронщина. Ну, а по музлу, ничего особливого (IMG:style_emoticons/default/25.gif)


Thanks:
(1) Metalass,
Go to the top of the page
  Insert nick Quick quote
+Quote Post

Reply to this topicStart new topic
2 User(s) are reading this topic (2 Guests and 0 Anonymous Users)
0 Members:

 



- Lo-Fi Version Support form
Copyrights and abuse reports form
Time is now: 24th July 2021 - 09:42:48