Welcome Guest ( Log In | Register )

> И неформату есть предел.

Рэп/хип-хоп/шансон/поп удаляются. Для них есть свои порталы.

 
Reply to this topicStart new topic
> Earth Wind & Fire - I Am (1979), Jazz/Funk/Soul
post May 7 2021, 14:33:46
Post #1

Правь статус, ####!111
**************
Group: Металариец
Posts: 49,218
Releases: 869
On Forums: 12 years 3 months
Thanks: 44691 time(s)
Russian Federation


(IMG:http://metalarea.org/images/audiocovers/2021_May/acov_tid350565.jpg)

*Artist: Earth Wind & Fire
*Album: I Am
*Year: 1979
*Genre: Jazz/Funk/Soul
*Country: United States (IMG:http://metalarea.org/forum/style_images/flags/United%20States.png)
*Format: mp3@CBR320kbps
*Size: 103MB

Tracklist:
1. In The Stone 04:48
2. Can't Let Go 03:28
3. After The Love Has Gone 04:38
4. Let Your Feelings Show 05:12
5. Boogie Wonderland 04:48
6. Star 04:23
7. Wait 03:39
8. Rock That! 03:07
9. You And I 03:34
10. Diana 04:08
11. Dirty (Interlude) 00:52
12. Dirty (Junior's Juke) 03:44
******************************
Total playing time: 46:21

(IMG:http://metalarea.org/images/youtube.png)

Technical info
(IMG:http://metalarea.org/images/spectrogram/2021_May/60520ef3d13737dbb897732d416b1bf4.png)
Input File: 06_Star.mp3
Channels : 2
Sample Rate : 44100
Precision : 16-bit
Duration : 00:04:24.50 = 11664230 samples = 19837.1 CDDA sectors
File Size : 10.6M
Bit Rate : 320k
Sample Encoding: MPEG audio (layer I, II or III)
Comments :
Artist=Earth, Wind & Fire
Album=I Am
Year=1979
Genre=Jazz+Funk



Register


Go to the top of the page
  Insert nick Quick quote
+Quote Post

Reply to this topicStart new topic
2 User(s) are reading this topic (2 Guests and 0 Anonymous Users)
0 Members:

 



- Lo-Fi Version Support form
Copyrights and abuse reports form
Time is now: 25th September 2021 - 13:23:10