Welcome Guest ( Log In | Register )

> Waldseel & Szivilizs - Waldseel/Szivilizs [split] (2020), Black Metal | Black Metal (D4)
post May 8 2021, 00:52:49
Post #1

Malum dominus omnium
****
Group: Металариец
Posts: 364
Releases: 275
On Forums: 1 year 3 months
Thanks: 5496 time(s)
Vatican City


(IMG:https://metalarea.org/images/audiocovers/2021_May/acov_tid350581_thumb.jpg)

*Artist: Waldseel & Szivilizs
*Album: Waldseel/Szivilizs [split]
*Year: 2020
*Genre: Black Metal | Black Metal
*Country: Germany (IMG:https://metalarea.org/forum/style_images/flags/Germany.png) | Switzerland (IMG:https://metalarea.org/forum/style_images/flags/Switzerland.png)
*Format: mp3@CBR320kbps
*Size: 79MB

Tracklist:
Waldseel

1. Continuous Rituals 04:15
2. Blindheit - Untertan 04:34
3. Scheinreich 05:01

Szivilizs
4. Angschtzuäschtänd Pt. I 08:50​
5. Angschtzuäschtänd Pt. II 11:44
******************************
Total playing time: 34:24

(IMG:https://metalarea.org/images/youtube.png)
Metal Archives




Technical info
(IMG:https://metalarea.org/images/spectrogram/2021_May/4c92ea60a7ac03662294e6219c52ca94.png)
Input File: Szivilizs - Angschtzuäschtänd Pt. II.mp3
Channels : 2
Sample Rate : 48000
Precision : 16-bit
Duration : 00:11:44.65 = 33823104 samples ~ 52848.6 CDDA sectors
File Size : 28.2M
Bit Rate : 320k
Sample Encoding: MPEG audio (layer I, II or III)
Comments :
Title=Angschtzuäschtänd Pt. II
Artist=Szivilizs
Album=Waldseel / Szivilizs
Tracknumber=5
Year=2020
Genre=Black Metal



Register


Go to the top of the page
  Insert nick Quick quote
+Quote Post
 
Start new topic
Replies (1 - 1)
post May 8 2021, 07:44:10
Post #2

Правь статус, ####!111
**************
Group: Металариец
Posts: 4,860
Releases: 374
From: MoscoW
On Forums: 14 years 6 months
Thanks: 6333 time(s)
Russian Federation


NARBENTAGE Produktionen:
Go to the top of the page
  Insert nick Quick quote
+Quote Post

Reply to this topicStart new topic
2 User(s) are reading this topic (2 Guests and 0 Anonymous Users)
0 Members:

 



- Lo-Fi Version Support form
Copyrights and abuse reports form
Time is now: 19th June 2021 - 11:22:43