Welcome Guest ( Log In | Register )

> 

Здесь релизы с живыми прямыми ссылками на lossless

> Vallendusk - Heralds Of Strife (2021), Atmospheric Black Metal (D5)
post May 8 2021, 01:27:03
Post #1

Malum dominus omnium
****
Group: Металариец
Posts: 364
Releases: 275
On Forums: 1 year 3 months
Thanks: 5496 time(s)
Vatican City


(IMG:https://metalarea.org/images/audiocovers/2021_May/acov_tid350583_thumb.jpg)

*Artist: Vallendusk
*Album: Heralds Of Strife
*Year: 2021
*Genre: Atmospheric Black Metal
*Country: Indonesia (IMG:https://metalarea.org/forum/style_images/flags/Indonesia.png)
*Format: mp3@CBR320kbps
*Size: 146MB

Tracklist:
1. The Last Soar as the Feathers Fall 09:27
2. Towards the Shimmering Dawn 09:31
3. Ethereal Echoes of Devotion 09:16
4. Solivagant Heart 07:32
5. Marching Ballad of the Unsung Ones 08:31
6. Immemorials in Eternal Slumber 07:40
7. The Sovereign 11:25
******************************
Total playing time: 1:03:22

(IMG:https://metalarea.org/images/youtube.png)



Technical info
(IMG:https://metalarea.org/images/spectrogram/2021_May/9a39696211a1dffe67da8e427f5f7fc1.png)
Input File: Vallendusk - The Last Soar As the Feathers Fall.mp3
Channels : 2
Sample Rate : 48000
Precision : 16-bit
Duration : 00:09:27.25 = 27227904 samples ~ 42543.6 CDDA sectors
File Size : 22.7M
Bit Rate : 320k
Sample Encoding: MPEG audio (layer I, II or III)
Comments :
Title=The Last Soar as the Feathers Fall
Artist=Vallendusk
Album=Heralds of Strife
Tracknumber=1
Year=2021
Genre=Atmospheric Black Metal



Register


Go to the top of the page
  Insert nick Quick quote
+Quote Post
 
Start new topic
Replies (1 - 3)
post May 8 2021, 08:21:01
Post #2

Четыре Литра
****
Group: Металариец
Posts: 319
Releases: 20
From: Saint-Petersburg, Купчино
On Forums: 15 years 7 months
Thanks: 500 time(s)
Russian Federation


Лучше б он чистым вокалом не пел. В остальном всё ровно, как и обычно у этоих чуваков.
Go to the top of the page
  Insert nick Quick quote
+Quote Post
post May 20 2021, 11:56:01
Post #3

Common dweller of hell
**************
Group: Металариец
Posts: 3,823
Releases: 12
From: Dnipro
On Forums: 12 years 11 months
Thanks: 1506 time(s)
Ukraine


Хороший альбом, чистого вокала совсем чуть-чуть.
Go to the top of the page
  Insert nick Quick quote
+Quote Post
post May 23 2021, 11:36:16
Post #4

Old School Metal
**************
Group: Металариец
Posts: 3,889
Releases: 0
From: г. Минск
On Forums: 12 years 3 months
Thanks: 9016 time(s)
Belarus



Vallendusk - Heralds Of Strife (2021)[Digipak]


(IMG:https://b.radikal.ru/b34/2105/c6/d10011d4a88a.jpg)


Format: mp3@320kbps (Lame 3.93.1) + Covers
Register

Lossless: FLAC (image+.cue+.log) + Covers
Register



Thanks:
Go to the top of the page
  Insert nick Quick quote
+Quote Post

Reply to this topicStart new topic
2 User(s) are reading this topic (2 Guests and 0 Anonymous Users)
0 Members:

 



- Lo-Fi Version Support form
Copyrights and abuse reports form
Time is now: 19th June 2021 - 11:29:21