Welcome Guest ( Log In | Register )

> И неформату есть предел.

Рэп/хип-хоп/шансон/поп удаляются. Для них есть свои порталы.

 
Reply to this topicStart new topic
> Sturmgeist & The Fall Of Rome - Kald Krig (2015), Synth/Noise
post May 8 2021, 11:15:33
Post #1

Восемь Литров
********
Group: Металариец
Posts: 852
Releases: 36
From: Санкт-Петербург
On Forums: 15 years 5 months
Thanks: 2484 time(s)
Russian Federation


(IMG:http://metalarea.org/images/audiocovers/2021_May/acov_tid350598_thumb.jpg)

*Artist: Sturmgeist & The Fall Of Rome
*Album: Kald Krig
*Year: 2015
*Genre: Synth/Noise
*Country: Norway (IMG:http://metalarea.org/forum/style_images/flags/Norway.png)
*Format: mp3@CBR320kbps
*Size: 196MB

Tracklist:
01. Soler For Vår Tid - Åndsmenneske 17:39
02. Anselm Kiefer 1969 05:03
03. Søner Av Anarkiet 07:17
04. D-Dag - Berlin I Kosmopolis 08:48
05. Rienzi - Raseri - Vald 10:07
06. Einsamgangar 09:04
07. Guds Flammer - Der Sturm 25:21
******************************
Total playing time: 1:23:20



Extended info
Cornelius Jakhelln (Solefald, Sturmgeist)
Jørgen Identitveit (Noisestar & The Fall Of Rome)
Kybermensch (Noisestar & The Fall Of Rome)

(IMG:https://img.discogs.com/XihYrpIA6827ZDdfHje-Y1vYYbI=/600x600/smart/filters:strip_icc():format(jpeg):mode_rgb():quality(90)/discogs-images/A-4450439-1433973947-2006.jpeg.jpg)

Sturmgeist & The Fall Of Rome is a poetic synth/noise assault unit based in Oslo and Berlin. They started playing together in the fall of 2010. The band merges the histories of extreme metal act Sturmgeist and underground Oslo noise act Noisestar & The Fall Of Rome, fusing vocal violence with filthy noise atmospheres.

Буквально вчера наткнулся на любопытный проект Корнелиуса из Солефальд и еще каких-то двух персонажей. Мне понравилось, но очень на любителя, музыкально ничего общего с известным Sturmgeist не имеет.


Technical info
(IMG:http://metalarea.org/images/spectrogram/2021_May/2185eab3a5d91953919b44c3632a97bd.png)
Input File: 02 - Anselm Kiefer 1969.mp3
Channels : 2
Sample Rate : 44100
Precision : 16-bit
Duration : 00:05:03.54 = 13385938 samples = 22765.2 CDDA sectors
File Size : 12.3M
Bit Rate : 323k
Sample Encoding: MPEG audio (layer I, II or III)
Comments :
Title=Anselm Kiefer 1969
Artist=Sturmgeist & The Fall Of Rome
Album=Kald Krig
Tracknumber=02
Year=2015
Genre=Synth/Noise



Register


Go to the top of the page
  Insert nick Quick quote
+Quote Post

Reply to this topicStart new topic
1 User(s) are reading this topic (1 Guests and 0 Anonymous Users)
0 Members:

 



- Lo-Fi Version Support form
Copyrights and abuse reports form
Time is now: 23rd October 2021 - 21:49:16