Welcome Guest ( Log In | Register )

> И неформату есть предел.

Рэп/хип-хоп/шансон/поп удаляются. Для них есть свои порталы.

 
Reply to this topicStart new topic
> Blackbriar - We'd Rather Burn [ep] (2018), Alternative/Gothic Metal
post May 8 2021, 11:16:50
Post #1

Добрый десептикон
******
Group: Металариец
Posts: 614
Releases: 412
On Forums: 13 years 8 months
Thanks: 4501 time(s)
Russian Federation


(IMG:http://metalarea.org/images/audiocovers/2021_May/acov_tid350599_thumb.jpg)

*Artist: Blackbriar
*Album: We'd Rather Burn [ep]
*Year: 2018
*Genre: Alternative/Gothic Metal
*Country: Netherlands (IMG:http://metalarea.org/forum/style_images/flags/Netherlands.png)
*Format: mp3@CBR320kbps
*Size: 45MB

Tracklist:
1. I'd Rather Burn
2. Let Me In
3. Stone Cold Body
4. Cry of a Banshee
5. Arms of the Ocean
******************************
Total playing time: 19:52



Technical info
(IMG:http://metalarea.org/images/spectrogram/2021_May/051a41b7d86262c016777d9bd170b794.png)
Input File: 01. I\'d Rather Burn.mp3
Channels : 2
Sample Rate : 44100
Precision : 16-bit
Duration : 00:03:15.68 = 8629576 samples = 14676.1 CDDA sectors
File Size : 7.83M
Bit Rate : 320k
Sample Encoding: MPEG audio (layer I, II or III)
Comments :
Title=I'd Rather Burn
Artist=BlackBriar
Album=We'd Rather Burn (EP)
Tracknumber=01
Year=2018
Genre=Gothic Metal



Register


Go to the top of the page
  Insert nick Quick quote
+Quote Post

Reply to this topicStart new topic
1 User(s) are reading this topic (1 Guests and 0 Anonymous Users)
0 Members:

 



- Lo-Fi Version Support form
Copyrights and abuse reports form
Time is now: 23rd October 2021 - 21:24:38