Welcome Guest ( Log In | Register )

> Releases Upload / Добавление релизов

Добавить релиз тут / Click here to add release
Рекомендованные обменники / Recommended file shares

 
Reply to this topicStart new topic
> Cryptic Vampire - Necrophony Of Decay [demo] (2020), Raw/Depressive Black Metal
post May 8 2021, 19:34:23
Post #1

Malum dominus omnium
****
Group: Металариец
Posts: 364
Releases: 275
On Forums: 1 year 3 months
Thanks: 5496 time(s)
Vatican City


(IMG:https://metalarea.org/images/audiocovers/2021_May/acov_tid350622_thumb.jpg)

*Artist: Cryptic Vampire
*Album: Necrophony Of Decay [demo]
*Year: 2020
*Genre: Raw/Depressive Black Metal
*Country: Slovakia (IMG:https://metalarea.org/forum/style_images/flags/Slovakia.png)
*Format: mp3@CBR320kbps
*Size: 73MB

Tracklist:
1. Buried in Forest 05:50
2. Soul Redemption 06:13
3. Dark Rays of Sun 06:41
4. Necrophony of Decay Pt. I 01:21
5. Necrophony of Decay Pt. II 07:30
6. Nyctophilia 04:13
******************************
Total playing time: 31:48


Metal Archives
(IMG:https://metalarea.org/images/youtube.png)

Technical info
(IMG:https://metalarea.org/images/spectrogram/2021_May/1ccbf2d8dff1cf5d9e657609f76a6a92.png)
Input File: Cryptic Vampire - Buried In Forest.mp3
Channels : 2
Sample Rate : 44100
Precision : 16-bit
Duration : 00:05:50.18 = 15442850 samples = 26263.4 CDDA sectors
File Size : 14.0M
Bit Rate : 320k
Sample Encoding: MPEG audio (layer I, II or III)
Comments :
Title=Buried In Forest
Artist=Cryptic Vampire
Album=Necrophony Of Decay
Tracknumber=1
Year=2020
Genre=Depressive Black Metal



Register


Go to the top of the page
  Insert nick Quick quote
+Quote Post

Reply to this topicStart new topic
2 User(s) are reading this topic (2 Guests and 0 Anonymous Users)
0 Members:

 



- Lo-Fi Version Support form
Copyrights and abuse reports form
Time is now: 19th June 2021 - 10:12:36