Welcome Guest ( Log In | Register )

> И неформату есть предел.

Рэп/хип-хоп/шансон/поп удаляются. Для них есть свои порталы.

> John Zorn - Chaos Magick (2021), Avant-Garde/Contemporary Jazz (D16)
post May 8 2021, 21:51:40
Post #1

Правь статус, ####!111
**************
Group: Металариец
Posts: 49,218
Releases: 869
On Forums: 12 years 3 months
Thanks: 44691 time(s)
Russian Federation


(IMG:http://metalarea.org/images/audiocovers/2021_May/acov_tid350625_thumb.jpg)

*Artist: John Zorn
*Album: Chaos Magick
*Year: 2021
*Genre: Avant-Garde/Contemporary Jazz
*Country: United States (IMG:http://metalarea.org/forum/style_images/flags/United%20States.png)
*Format: mp3@CBR320kbps
*Size: 90MB

Tracklist:
1. The Initiate 03:50
2. Corinthians I 05:24
3. The Servitor 05:45
4. St. Augustine 06:58
5. Egregore 04:36
6. Crossing The Abyss 03:50
7. Liber 15 02:48
8. Imp Of The Perverse 02:52
9. Corinthians II 03:43
******************************
Total playing time: 39:46

Technical info
(IMG:http://metalarea.org/images/spectrogram/2021_May/80434bbb3f693df2730754a358acf949.png)
Input File: 01 - The Initiate.mp3
Channels : 2
Sample Rate : 44100
Precision : 16-bit
Duration : 00:03:50.13 = 10148645 samples = 17259.6 CDDA sectors
File Size : 9.22M
Bit Rate : 321k
Sample Encoding: MPEG audio (layer I, II or III)
Comments :
Title=The Initiate
Artist=John Zorn
Album=Chaos Magick
Tracknumber=1
Year=2021
Genre=Jazz
Discnumber=1



Register


Go to the top of the page
  Insert nick Quick quote
+Quote Post
 
Start new topic
Replies (1 - 4)
post May 13 2021, 17:28:19
Post #2

Пять Литров
*****
Group: Металариец
Posts: 427
Releases: 18
On Forums: 8 years 3 weeks
Thanks: 761 time(s)
Iceland


No pre-listening possibilities in the net...that's how to sell an album. (IMG:style_emoticons/default/smile1.gif)
Go to the top of the page
  Insert nick Quick quote
+Quote Post
post May 13 2021, 18:13:35
Post #3

королева бала
*******
Group: Металариец
Posts: 753
Releases: 0
On Forums: 14 years 5 months
Thanks: 550 time(s)
Russian Federation


очень круто звучит, тут Зорн великолепен!
Go to the top of the page
  Insert nick Quick quote
+Quote Post
post Jul 8 2021, 14:00:53
Post #4

бутылка кефира полбатона
**********
Group: Металариец
Posts: 1,138
Releases: 0
From: Курганская обл., Шадринск
On Forums: 12 years 6 months
Thanks: 370 time(s)
Russian Federation


кто-нибудь перезальет?
Go to the top of the page
  Insert nick Quick quote
+Quote Post
post Jul 8 2021, 14:11:48
Post #5

Правь статус, ####!111
**************
Group: Металариец
Posts: 2,707
Releases: 12
On Forums: 14 years 1 month
Thanks: 1563 time(s)
Russian Federation


Уважаемо. Интересный альбом, как и всегда.
Go to the top of the page
  Insert nick Quick quote
+Quote Post

Reply to this topicStart new topic
1 User(s) are reading this topic (1 Guests and 0 Anonymous Users)
0 Members:

 



- Lo-Fi Version Support form
Copyrights and abuse reports form
Time is now: 25th September 2021 - 13:59:40