Welcome Guest ( Log In | Register )

> Releases Upload / Добавление релизов

Добавить релиз тут / Click here to add release
Рекомендованные обменники / Recommended file shares

> Nihil Invocation - The Attaining Apparition And Night (2021), Raw Black Metal (D)
post May 9 2021, 03:21:18
Post #1

Malum dominus omnium
****
Group: Металариец
Posts: 364
Releases: 275
On Forums: 1 year 3 months
Thanks: 5496 time(s)
Vatican City


(IMG:https://metalarea.org/images/audiocovers/2021_May/acov_tid350639_thumb.jpg)

*Artist: Nihil Invocation
*Album: The Attaining Apparition And Night
*Year: 2021
*Genre: Raw Black Metal
*Country: United States (IMG:https://metalarea.org/forum/style_images/flags/United%20States.png)
*Format: mp3@CBR320kbps
*Size: 68MB

Tracklist:
1. Desecrating Grandeur (Withered Dead Upon the Path...) 02:54
2. The Attaining Apparition and Night 02:35
3. Reclusion as Homage to Rotting World 02:35
4. To Shatter All Bestowed Unto Myself 02:34
5. Storming Woods of Dark Embrace 03:44
6. For the Glory of Which Remains Forsaken 02:15
7. Within the Bliss of Dying Light 02:54
8. As an Onward Flowing Stream of Blight 03:16
9. The Fragile Basket and Eggs Within 03:05
10. Ultima Thule (Falkenbach cover) 03:35
******************************
Total playing time: 29:27


(IMG:https://metalarea.org/images/youtube.png)
Metal Archives
Instagram


Technical info
(IMG:https://metalarea.org/images/spectrogram/2021_May/adcd7f0d70c329e47c105b698a6d1feb.png)
Input File: Nihil Invocation - Desecrating Grandeur ( Withered Dead Upon the Path. ).mp3
Channels : 2
Sample Rate : 48000
Precision : 16-bit
Duration : 00:02:55.16 = 8407680 samples ~ 13137 CDDA sectors
File Size : 7.01M
Bit Rate : 320k
Sample Encoding: MPEG audio (layer I, II or III)
Comments :
Title=Desecrating Grandeur (Withered Dead Upon the Path...)
Artist=Nihil Invocation
Album=The Attaining Apparition and Night
Tracknumber=1
Year=2021
Genre=Black Metal



Register


Go to the top of the page
  Insert nick Quick quote
+Quote Post
 
Start new topic
Replies (1 - 1)
post Jun 4 2021, 20:37:43
Post #2

кручу наждак
**************
Group: Металариец
Posts: 4,999
Releases: 104
From: Самара
On Forums: 11 years 1 month
Thanks: 4045 time(s)
Russian Federation


Убого.
Go to the top of the page
  Insert nick Quick quote
+Quote Post

Reply to this topicStart new topic
2 User(s) are reading this topic (2 Guests and 0 Anonymous Users)
0 Members:

 



- Lo-Fi Version Support form
Copyrights and abuse reports form
Time is now: 19th June 2021 - 10:07:12