Welcome Guest ( Log In | Register )

> Releases Upload / Добавление релизов

Добавить релиз тут / Click here to add release
Рекомендованные обменники / Recommended file shares

 
Reply to this topicStart new topic
> Helsang - Helheim [ep] (2021), Black Metal
post May 9 2021, 22:33:57
Post #1

Malum dominus omnium
****
Group: Металариец
Posts: 364
Releases: 275
On Forums: 1 year 3 months
Thanks: 5513 time(s)
Vatican City


(IMG:https://metalarea.org/images/audiocovers/2021_May/acov_tid350679_thumb.png)

*Artist: Helsang
*Album: Helheim [ep]
*Year: 2021
*Genre: Black Metal
*Country: Germany (IMG:https://metalarea.org/forum/style_images/flags/Germany.png)
*Format: mp3@CBR320kbps
*Size: 65MB

Tracklist:
1. Monumente des Todes 03:59
2. Das schwarze Tor 06:32
3. Spektrale Dunkelheit 05:30
4. In den kalten Ketten der Angst 07:17
5. Gefangen in der Leere 04:28
******************************
Total playing time: 27:46

(IMG:https://metalarea.org/images/youtube.png)
Metal Archives


Technical info
(IMG:https://metalarea.org/images/spectrogram/2021_May/5d4973840b473ba67a233c01e7e8a0ee.png)
Input File: Helsang - In den kalten Ketten der Angst.mp3
Channels : 2
Sample Rate : 48000
Precision : 16-bit
Duration : 00:07:17.65 = 21007104 samples ~ 32823.6 CDDA sectors
File Size : 17.5M
Bit Rate : 320k
Sample Encoding: MPEG audio (layer I, II or III)
Comments :
Title=In den kalten Ketten der Angst
Artist=Helsang
Album=Helheim
Tracknumber=4
Year=2021
Genre=Black Metal



Register


Go to the top of the page
  Insert nick Quick quote
+Quote Post

Reply to this topicStart new topic
2 User(s) are reading this topic (2 Guests and 0 Anonymous Users)
0 Members:

 



- Lo-Fi Version Support form
Copyrights and abuse reports form
Time is now: 19th June 2021 - 22:15:56