Welcome Guest ( Log In | Register )

 
Reply to this topicStart new topic
> Forgotten Heritage - The Ominous Future Of Humanity Part I [demo] (2021), Raw Black Metal
post May 10 2021, 00:57:40
Post #1

Malum dominus omnium
****
Group: Металариец
Posts: 364
Releases: 275
On Forums: 1 year 3 months
Thanks: 5496 time(s)
Vatican City


(IMG:https://metalarea.org/images/audiocovers/2021_May/acov_tid350688_thumb.jpg)

*Artist: Forgotten Heritage
*Album: The Ominous Future Of Humanity Part I [demo]
*Year: 2021
*Genre: Raw Black Metal
*Country: Unknown (IMG:https://metalarea.org/forum/style_images/flags/Unknown.png)
*Format: mp3@CBR320kbps
*Size: 73MB

Tracklist:
1. Untitled I 07:53
2. Untitled II 14:15
3. Untitled III 08:58
******************************
Total playing time: 31:06

(IMG:https://metalarea.org/images/youtube.png)


Technical info
(IMG:https://metalarea.org/images/spectrogram/2021_May/c29e35d05864d408c778189b2c92e53c.png)
Input File: Forgotten Heritage - Untitled II.mp3
Channels : 2
Sample Rate : 48000
Precision : 16-bit
Duration : 00:14:15.32 = 41055312 samples ~ 64148.9 CDDA sectors
File Size : 34.2M
Bit Rate : 320k
Sample Encoding: MPEG audio (layer I, II or III)
Comments :
Title=Untitled II
Artist=Forgotten Heritage
Album=The Ominous Future of Humanity Part I
Tracknumber=2
Year=2021
Genre=Raw Black Metal



Register


Go to the top of the page
  Insert nick Quick quote
+Quote Post

Reply to this topicStart new topic
2 User(s) are reading this topic (2 Guests and 0 Anonymous Users)
0 Members:

 



- Lo-Fi Version Support form
Copyrights and abuse reports form
Time is now: 19th June 2021 - 10:00:57