Welcome Guest ( Log In | Register )

 
Reply to this topicStart new topic
> Visceral Damage - Demo [demo] (1992), Death Metal/Grindcore (D4)
post May 10 2021, 09:56:31
Post #1

Подвал
**************
Group: Металариец
Posts: 16,087
Releases: 9219
From: Far East (Khabarovsk)
On Forums: 12 years 4 months
Thanks: 103932 time(s)
Russian Federation


(IMG:http://metalarea.org/images/audiocovers/2021_May/acov_tid350699_thumb.jpg)

*Artist: Visceral Damage
*Album: Demo [demo]
*Year: 1992
*Genre: Death Metal/Grindcore
*Country: Brazil (IMG:http://metalarea.org/forum/style_images/flags/Brazil.png)
*Format: mp3@CBR320kbps
*Size: 46MB

Tracklist:
1. Intro-Eager For A Edible Exhumation 00:13
2. Alimentary Corpse's Grave 00:09
3. Bloodfeed Endoparasites 01:18
4. Laconic Explanation About Some Sado 00:51
5. Cadaveric Orgasm (Vaginal Orgy) 02:15
6. Cremated Cadaver From Crematory Pyre 00:19
7. Stillborn Premature Baby 01:55
8. Moulding Humane 00:32
9. Pregnant-Woman Autopsy 01:37
10. Visceral Damage 01:00
11. Hallucinogenic Trip 02:55
12. Violent Gasp For Breathe (Catarrhou) 00:37
13. Revolting Open Sore Upon The Disgust 00:37
14. Faecal Disarticulation 00:11
15. Cataleptic Tumour 00:55
16. Viscous Enzimes of Chymification 00:46
17. Fleshfeast, Rigor-Mortis and Tamponment 01:45
18. Malevolent Bloodshed Routiné 01:41
19. Spasmodic Defecation 00:39
20. Grotesque Pyorrhoea 00:32
21. Cephalic Necroscopy 01:11
22. Morgue's Serenade 00:50
******************************
Total playing time: 22:48

Technical info
(IMG:http://metalarea.org/images/spectrogram/2021_May/fcc421fca0bc8abef7b95607d61b8aff.png)
Input File: 03-Bloodfeed Endoparasites.mp3
Channels : 2
Sample Rate : 44100
Precision : 16-bit
Duration : 00:01:18.71 = 3471155 samples = 5903.32 CDDA sectors
File Size : 3.15M
Bit Rate : 320k
Sample Encoding: MPEG audio (layer I, II or III)
Comments :
Title=Bloodfeed Endoparasites
Artist=Visceral Damage (Bra)
Album=Demo
Tracknumber=03
Year=1992
Genre=Death Metal



Register


Go to the top of the page
  Insert nick Quick quote
+Quote Post

Reply to this topicStart new topic
1 User(s) are reading this topic (1 Guests and 0 Anonymous Users)
0 Members:

 



- Lo-Fi Version Support form
Copyrights and abuse reports form
Time is now: 12th June 2021 - 21:31:35