Welcome Guest ( Log In | Register )

> Releases Upload / Добавление релизов

Добавить релиз тут / Click here to add release
Рекомендованные обменники / Recommended file shares

 
Reply to this topicStart new topic
> Whore Of The Underworld - Succubus [demo] (2020), Black/Death Metal
post May 10 2021, 12:41:53
Post #1

Правь статус, ####!616
**************
Group: Металариец
Posts: 6,393
Releases: 4877
From: 55°35’N 38°08’E
On Forums: 12 years 11 months
Thanks: 90207 time(s)
Unknown


(IMG:https://metalarea.org/images/audiocovers/2021_May/acov_tid350707_thumb.jpg)

*Artist: Whore Of The Underworld
*Album: Succubus [demo]
*Year: 2020
*Genre: Black/Death Metal
*Country: Netherlands (IMG:https://metalarea.org/forum/style_images/flags/Netherlands.png)
*Format: mp3@CBR320kbps
*Size: 33MB

Tracklist:
1. Demon of the Wilds 04:21
2. Whore of the Underworld 04:36
3. Raping Angels 04:10
******************************
Total playing time: 13:07



Technical info
(IMG:https://metalarea.org/images/spectrogram/2021_May/57c26869ecfd343445ce682a5fcfeccc.png)
Input File: 01 Demon of the wilds.mp3
Channels : 2
Sample Rate : 44100
Precision : 16-bit
Duration : 00:04:21.48 = 11531136 samples = 19610.8 CDDA sectors
File Size : 10.6M
Bit Rate : 325k
Sample Encoding: MPEG audio (layer I, II or III)
Comments :
Title=Demon of the wilds
Artist=Whore of the underworld
Album=Whore of the underworld
Tracknumber=1
Year=2020
Genre=Black/Death Metal



Register


Go to the top of the page
  Insert nick Quick quote
+Quote Post

Reply to this topicStart new topic
1 User(s) are reading this topic (1 Guests and 0 Anonymous Users)
0 Members:

 



- Lo-Fi Version Support form
Copyrights and abuse reports form
Time is now: 22nd June 2021 - 12:37:05