Welcome Guest ( Log In | Register )

> Releases Upload / Добавление релизов

Добавить релиз тут / Click here to add release
Рекомендованные обменники / Recommended file shares

 
Reply to this topicStart new topic
> Bantha Rider - Binary Sunset Massacre (2020), Instrumental Sludge/Stoner Metal
post May 10 2021, 13:31:13
Post #1

Serial Uploader
Group Icon
Group: V.I.P
Posts: 37,603
Releases: 35775
From: Lithuania
On Forums: 13 years 2 weeks
Thanks: 432881 time(s)
Lithuania


(IMG:https://metalarea.org/images/audiocovers/2021_May/acov_tid350710_thumb.jpg)

*Artist: Bantha Rider
*Album: Binary Sunset Massacre
*Year: 2020
*Genre: Instrumental Sludge/Stoner Metal
*Country: Poland (IMG:https://metalarea.org/forum/style_images/flags/Poland.png)
*Format: mp3@CBR320kbps
*Size: 125MB

Tracklist:
01. Binary Sunset Massacre 02:00
02. De Wanna Wanga 04:07
03. The Gamorrean 06:57
04. Boonta Eve 04:46
05. Sagittarius 06:30
06. Rancor's Delight 07:58
07. March of the Banthas 09:30
08. Pazuzu 13:03
******************************
Total playing time: 54:51


Preview 2

(IMG:https://metalarea.org/images/youtube.png)

Technical info
(IMG:https://metalarea.org/images/spectrogram/2021_May/5630fc276963524f3653831d252c722b.png)
Input File: 02 - De Wanna Wanga.mp3
Channels : 2
Sample Rate : 44100
Precision : 16-bit
Duration : 00:04:07.08 = 10896360 samples = 18531.2 CDDA sectors
File Size : 9.97M
Bit Rate : 323k
Sample Encoding: MPEG audio (layer I, II or III)
Comments :
Title=De Wanna Wanga
Artist=Bantha Rider
Album=Binary Sunset Massacre
Tracknumber=2
Year=2020
Genre=Instrumental Stoner/Sludge Metal



Register


Go to the top of the page
  Insert nick Quick quote
+Quote Post

Reply to this topicStart new topic
1 User(s) are reading this topic (1 Guests and 0 Anonymous Users)
0 Members:

 



- Lo-Fi Version Support form
Copyrights and abuse reports form
Time is now: 22nd June 2021 - 10:54:47