Welcome Guest ( Log In | Register )

> И неформату есть предел.

Рэп/хип-хоп/шансон/поп удаляются. Для них есть свои порталы.

 
Reply to this topicStart new topic
> Kilgore Trout - Kilgore Trout (1995), Avant-Prog/Jazz-Rock
post May 10 2021, 14:39:44
Post #1

Семь Литров
*******
Group: Металариец
Posts: 770
Releases: 32
From: Санкт-Петербург
On Forums: 15 years 2 months
Thanks: 2322 time(s)
Russian Federation


(IMG:http://metalarea.org/images/audiocovers/2021_May/acov_tid350716_thumb.jpg)

*Artist: Kilgore Trout
*Album: Kilgore Trout
*Year: 1995
*Genre: Avant-Prog/Jazz-Rock
*Country: United Kingdom (IMG:http://metalarea.org/forum/style_images/flags/United%20Kingdom.png)
*Format: mp3@CBR320kbps
*Size: 136MB

Tracklist:
01. Al Harsh 03:38
02. Lizard Dog Suite 10:23
03. ABSTA 04:34
04. Hey Manchild, Can I Get A Five Count? 05:57
05. Electro-Convulsion Therapy (ECT) 10:03
06. Incision 05:24
07. Ode To Thingy 00:43
08. Thingy 04:39
09. Ice Cold Burger Pop 09:26
10. Mechémish 04:37
******************************
Total playing time: 59:23

Extended info
Steven Linder - bass
Stephen Ferraro - saxophone
Bryan Sorum - trumpet, flugelhorn
Niall Bloom - guitars
Daniel Moore - drums, percussion


Technical info
(IMG:http://metalarea.org/images/spectrogram/2021_May/1cfe8c9a0cc5901213bebb66622cf0db.png)
Input File: 04 - Hey Manchild, Can I Get A Five Count.mp3
Channels : 2
Sample Rate : 44100
Precision : 16-bit
Duration : 00:05:56.70 = 15730382 samples = 26752.4 CDDA sectors
File Size : 14.4M
Bit Rate : 323k
Sample Encoding: MPEG audio (layer I, II or III)
Comments :
Title=Hey Manchild, Can I Get A Five Count?
Artist=Kilgore Trout
Album=Kilgore Trout
Tracknumber=04
Year=1995
Genre=Avant-Prog/Jazz-Rock



Register


Go to the top of the page
  Insert nick Quick quote
+Quote Post

Reply to this topicStart new topic
1 User(s) are reading this topic (1 Guests and 0 Anonymous Users)
0 Members:

 



- Lo-Fi Version Support form
Copyrights and abuse reports form
Time is now: 24th July 2021 - 06:42:59