Welcome Guest ( Log In | Register )

> Ossian - A Teljesség (2021), Heavy/Power Metal (D)
post May 10 2021, 18:34:09
Post #1

Правь статус, ####!111
**************
Group: Металариец
Posts: 4,164
Releases: 3817
From: Одесса
On Forums: 13 years 1 month
Thanks: 41772 time(s)
Ukraine


(IMG:http://metalarea.org/images/audiocovers/2021_May/acov_tid350727_thumb.jpg)

*Artist: Ossian
*Album: A Teljesség
*Year: 2021
*Genre: Heavy/Power Metal
*Country: Hungary (IMG:http://metalarea.org/forum/style_images/flags/Hungary.png)
*Format: mp3@CBR320kbps
*Size: 114MB

Tracklist:
1. Kell egy szikra
2. Ember a Holdon
3. A türelem hatalom
4. Lassan ébredő
5. Szabad maradhat
6. A Teljesség
7. Együtt voltunk minden
8. Azon a napon
9. Kelj fel és láss
10. Nem elég az ég
11. A hiányzó láncszem
12. Engedd el
13. Az, aki voltam
******************************
Total playing time: 48:09

iTunes

Extended info
Line - up:

Endre Paksi - Vocals (ex-Wellington, Rockewell, ex-Kalapács, ex-Pokolgép)
Richárd Rubcsics - Guitars (ex-Neckrofight, ex-Seneca, ex-Wellington, ex-Kalapács)
Krisztián Erdélyi - Bass (ex-Falanx)
Gergely Kálozi - Drums (ex-Invader)


Technical info
(IMG:http://metalarea.org/images/spectrogram/2021_May/2de66e78d6b88766cc57144f9985967a.png)
Input File: 10. Nem elég az ég.mp3
Channels : 2
Sample Rate : 44100
Precision : 16-bit
Duration : 00:03:22.75 = 8941275 samples = 15206.2 CDDA sectors
File Size : 8.16M
Bit Rate : 322k
Sample Encoding: MPEG audio (layer I, II or III)
Comments :
Title=Nem eleg az eg
Artist=Ossian
Album=A Teljesseg
Tracknumber=10
Year=2021
Genre=Heavy/Power Metal



Register


Go to the top of the page
  Insert nick Quick quote
+Quote Post
 
Start new topic
Replies (1 - 6)
post May 12 2021, 19:07:00
Post #2

Ёлд ХеллоВяйне
Group Icon
Group: V.I.P
Posts: 31,868
Releases: 144
From: Питер
On Forums: 14 years 9 months
Thanks: 19935 time(s)
Russian Federation


Go to the top of the page
  Insert nick Quick quote
+Quote Post
post May 13 2021, 18:18:58
Post #3

MDM-Thrash Metal
**************
Group: Металариец
Posts: 10,496
Releases: 1268
From: Одесса
On Forums: 13 years 11 months
Thanks: 30828 time(s)
Ukraine


Go to the top of the page
  Insert nick Quick quote
+Quote Post
post May 14 2021, 23:18:54
Post #4

Шесть Литров
******
Group: Металариец
Posts: 501
Releases: 0
From: Москва
On Forums: 14 years 9 months
Thanks: 111 time(s)
Russian Federation


Проходной материал, несмотря на венгерский.


Thanks:
(1) Bruce,
Go to the top of the page
  Insert nick Quick quote
+Quote Post
post May 14 2021, 23:59:22
Post #5

Это просто место… где все подошло к концу.
**************
Group: Металариец
Posts: 6,350
Releases: 0
From: Страны Мамонтов
On Forums: 14 years 5 months
Thanks: 2484 time(s)
Antarctica


ЦИТАТА(Сварог Барг @ May 15 2021, 01:18:54) *
Проходной материал, несмотря на венгерский.

Спасибо венгерскому?


Или ты только язык слушал, не музыку?
Go to the top of the page
  Insert nick Quick quote
+Quote Post
post May 23 2021, 13:38:17
Post #6

Три Литра
***
Group: Завсегдатай
Posts: 236
Releases: 0
From: Kiev
On Forums: 12 years 6 months
Thanks: 50 time(s)
Ukraine


avather
венгерская рок и метал сцена очень крутая , сам для себя открытие недавно сделал
Go to the top of the page
  Insert nick Quick quote
+Quote Post
post May 30 2021, 17:13:43
Post #7

Перевозчик
**************
Group: Металариец
Posts: 3,298
Releases: 0
On Forums: 13 years 4 weeks
Thanks: 737 time(s)
Russian Federation


Сцена у венгров, конечно, действительно очень крутая, только вот слушать венгерский - это ещё хуже, чем испанский. Хуже только, наверное, чешский. (IMG:style_emoticons/default/smile2.gif)

И что за фигня с саундкулаудом? Чё за ограничение по странам прослушивания?
Go to the top of the page
  Insert nick Quick quote
+Quote Post

Reply to this topicStart new topic
2 User(s) are reading this topic (2 Guests and 0 Anonymous Users)
0 Members:

 



- Lo-Fi Version Support form
Copyrights and abuse reports form
Time is now: 1st August 2021 - 12:15:31