Welcome Guest ( Log In | Register )

> Правила / Rules

Тут только для чтения лежат низкобитрейтные (<192kbps) релизы, для которых есть аналоги в высокобитрейтных форумах.

Here goes (and stand in read only mode) low bitrate releases (<192kbps) which were already replaced by high bitrate releases in corresponding forums.

> Ildfar - Som Vinden Farer Vil (2021), Black Metal
post May 10 2021, 18:37:03
Post #1

Malum dominus omnium
****
Group: Металариец
Posts: 364
Releases: 275
On Forums: 1 year 3 months
Thanks: 5515 time(s)
Vatican City


(IMG:https://metalarea.org/images/audiocovers/2021_May/acov_tid350728_thumb.jpg)

*Artist: Ildfar
*Album: Som Vinden Farer Vil
*Year: 2021
*Genre: Black Metal
*Country: Norway (IMG:https://metalarea.org/forum/style_images/flags/Norway.png)
*Format: mp3@CBR320kbps
*Size: 95MB

Tracklist:
1. Taakeheimen 01:45
2. Under sorte vinger 06:02
3. The Last Dawn 04:19
4. Den gamle mannen hvisker mitt navn 03:59
5. Som vinden farer vil 04:08
6. Vandring 01:59
7. Under the Graves (of 1994) 03:11
8. Pesten 03:30
9. Behold the Throne 03:29
10. Lyset i skumringen 05:06
11. Norges haller 03:19
******************************
Total playing time: 40:47


(IMG:https://metalarea.org/images/youtube.png)

Metal Archives

Technical info
(IMG:https://metalarea.org/images/spectrogram/2021_May/b3795cd897b06d33ae52a5dee18d5aa5.png)
Input File: Ildfar - Lyset I Skumringen.mp3
Channels : 2
Sample Rate : 48000
Precision : 16-bit
Duration : 00:05:05.22 = 14650368 samples ~ 22891.2 CDDA sectors
File Size : 12.2M
Bit Rate : 320k
Sample Encoding: MPEG audio (layer I, II or III)
Comments :
Title=Lyset i skumringen
Artist=Ildfar
Album=Som vinden farer vil
Tracknumber=10
Year=2021
Genre=Black Metal



Register


Go to the top of the page
  Insert nick Quick quote
+Quote Post
 
Start new topic
Replies (1 - 1)
post May 13 2021, 08:45:10
Post #2

0%Tolerance
**********
Group: Металариец
Posts: 1,043
Releases: 0
On Forums: 8 years 9 months
Thanks: 188 time(s)
Unknown


Тыркнул 2 трека на бэке - жирно так получилось -- надо брать и слушать целиком.
Go to the top of the page
  Insert nick Quick quote
+Quote Post

Причина закрытия (DarkHorde 27-05-2021): Ildfar - Som Vinden Farer Vil (2021)
Closed TopicStart new topic
2 User(s) are reading this topic (2 Guests and 0 Anonymous Users)
0 Members:

 



- Lo-Fi Version Support form
Copyrights and abuse reports form
Time is now: 19th June 2021 - 23:23:07