Welcome Guest ( Log In | Register )

> И неформату есть предел.

Рэп/хип-хоп/шансон/поп удаляются. Для них есть свои порталы.

> Acid's Trip - Strings Of Soul (2021), Psychedelic/Hard Rock
post May 11 2021, 12:54:41
Post #1

Правь статус, ####!111
**************
Group: Металариец
Posts: 49,277
Releases: 876
On Forums: 12 years 4 months
Thanks: 44881 time(s)
Russian Federation


(IMG:http://metalarea.org/images/audiocovers/2021_May/acov_tid350744_thumb.jpg)

*Artist: Acid's Trip
*Album: Strings Of Soul
*Year: 2021
*Genre: Psychedelic/Hard Rock
*Country: Sweden (IMG:http://metalarea.org/forum/style_images/flags/Sweden.png)
*Format: mp3@CBR320kbps
*Size: 92MB

Tracklist:
1. Prelude 01:29
2. Strings Of Soul 04:00
3. The Kiss Riff 03:26
4. No More Fucks 02:16
5. High Time 03:20
6. Just A Man 04:05
7. Faster, Chopper, Boogie 03:21
8. Creature Of The Lagoon 03:25
9. Get It Right 03:17
10. Delusions Of Grandeur 04:04
11. If Only (I Were the Only) 03:11
12. Come Hell Or High Water 04:01
******************************
Total playing time: 39:55



Technical info
(IMG:http://metalarea.org/images/spectrogram/2021_May/d7278ce1a9bb1e980b008aa4458b8f6d.png)
Input File: 02 - Strings of Soul.mp3
Channels : 2
Sample Rate : 44100
Precision : 16-bit
Duration : 00:04:00.89 = 10623293 samples = 18066.8 CDDA sectors
File Size : 9.78M
Bit Rate : 325k
Sample Encoding: MPEG audio (layer I, II or III)
Comments :
Title=Strings of Soul
Artist=Acid's Trip
Album=Strings of Soul
Tracknumber=02
Year=2021
Genre=Psychedelic | Hard Rock



Register


Go to the top of the page
  Insert nick Quick quote
+Quote Post
 
Start new topic
Replies (1 - 1)
post May 11 2021, 18:25:02
Post #2

Правь статус, ####!111
**************
Group: Металариец
Posts: 49,277
Releases: 876
On Forums: 12 years 4 months
Thanks: 44881 time(s)
Russian Federation


Задорный альбом с женским вокалом. Хоть подобной музыки и порядочно сейчас встречается, но эти музыканты не теряются на общем фоне олдскульного ревайвала.

Go to the top of the page
  Insert nick Quick quote
+Quote Post

Reply to this topicStart new topic
2 User(s) are reading this topic (2 Guests and 0 Anonymous Users)
0 Members:

 



- Lo-Fi Version Support form
Copyrights and abuse reports form
Time is now: 23rd October 2021 - 20:39:43