Welcome Guest ( Log In | Register )

> И неформату есть предел.

Рэп/хип-хоп/шансон/поп удаляются. Для них есть свои порталы.

> Orang-Utan - Orang-Utan (1971), Psychedelic/Acid/Hard Rock
post May 11 2021, 13:01:58
Post #1

Правь статус, ####!111
**************
Group: Металариец
Posts: 48,991
Releases: 846
On Forums: 12 years 1 month
Thanks: 43988 time(s)
Russian Federation


(IMG:http://metalarea.org/images/audiocovers/2021_May/acov_tid350745_thumb.jpg)

*Artist: Orang-Utan
*Album: Orang-Utan
*Year: 1971
*Genre: Psychedelic/Acid/Hard Rock
*Country: United Kingdom (IMG:http://metalarea.org/forum/style_images/flags/United%20Kingdom.png)
*Format: mp3@CBR320kbps
*Size: 86MB

Tracklist:
1. I Can See Inside Your Head
2. Slipping Away
3. Love Queen
4. Chocolate Piano
5. If You Leave
6. Fly Me High
7. Country Hike
8. Magic Playground
******************************
Total playing time: 38:48

(IMG:http://metalarea.org/images/youtube.png)

Technical info
(IMG:http://metalarea.org/images/spectrogram/2021_May/3d59e665c2434263b1e98ebc31c236b4.png)
Input File: 03 - Love Queen.mp3
Channels : 2
Sample Rate : 44100
Precision : 16-bit
Duration : 00:04:33.84 = 12076300 samples = 20537.9 CDDA sectors
File Size : 11.0M
Bit Rate : 320k
Sample Encoding: MPEG audio (layer I, II or III)
Comments :
Title=Love Queen
Artist=Orang-Utan
Album=Orang-Utan
Tracknumber=03
Year=1971
Genre=Progressive Rock



Register


Go to the top of the page
  Insert nick Quick quote
+Quote Post
 
Start new topic
Replies (1 - 1)
post May 11 2021, 18:20:59
Post #2

Правь статус, ####!111
**************
Group: Металариец
Posts: 48,991
Releases: 846
On Forums: 12 years 1 month
Thanks: 43988 time(s)
Russian Federation


Прекрасный психоделичный альбом из золотого века стиля.
Go to the top of the page
  Insert nick Quick quote
+Quote Post

Reply to this topicStart new topic
1 User(s) are reading this topic (1 Guests and 0 Anonymous Users)
0 Members:

 



- Lo-Fi Version Support form
Copyrights and abuse reports form
Time is now: 24th July 2021 - 06:40:50