Welcome Guest ( Log In | Register )

> И неформату есть предел.

Рэп/хип-хоп/шансон/поп удаляются. Для них есть свои порталы.

> The Firebirds - Light My Fire (1969), Hard Rock/Heavy Psych
post May 11 2021, 14:31:27
Post #1

Правь статус, ####!111
**************
Group: Металариец
Posts: 48,991
Releases: 846
On Forums: 12 years 1 month
Thanks: 43988 time(s)
Russian Federation


(IMG:http://metalarea.org/images/audiocovers/2021_May/acov_tid350746_thumb.jpg)

*Artist: The Firebirds
*Album: Light My Fire
*Year: 1969
*Genre: Hard Rock/Heavy Psych
*Country: United Kingdom (IMG:http://metalarea.org/forum/style_images/flags/United%20Kingdom.png)
*Format: mp3@CBR320kbps
*Size: 70MB

Tracklist:
1. Warm Up 02:30
2. Reflections 04:22
3. By Baby 05:29
4. Free Bass, Free Drum, Free Fuzz 02:37
5. Gypsy Fire 04:31
6. Delusions 02:39
7. No Tomorrows 05:02
8. Light My Fire 04:18
******************************
Total playing time: 31:28

(IMG:http://metalarea.org/images/youtube.png)

Technical info
(IMG:http://metalarea.org/images/spectrogram/2021_May/741e1d7dc78837d807de7e5f8e2bc1e4.png)
Input File: 01 - Warm Up.mp3
Channels : 2
Sample Rate : 44100
Precision : 16-bit
Duration : 00:02:29.80 = 6606048 samples = 11234.8 CDDA sectors
File Size : 6.03M
Bit Rate : 322k
Sample Encoding: MPEG audio (layer I, II or III)
Comments :
Title=Warm Up
Artist=The Firebirds
Album=Light My Fire
Tracknumber=1
Year=1969
Genre=Psychedelic Rock



Register


Go to the top of the page
  Insert nick Quick quote
+Quote Post
 
Start new topic
Replies (1 - 1)
post May 11 2021, 18:23:50
Post #2

Правь статус, ####!111
**************
Group: Металариец
Posts: 48,991
Releases: 846
On Forums: 12 years 1 month
Thanks: 43988 time(s)
Russian Federation


Ребята обыграли не только название трэка The Doors, но и мотивчик в открывающем трэке. А сам сабж - очень крутой вязкий блюзовый сай рок.
Go to the top of the page
  Insert nick Quick quote
+Quote Post

Reply to this topicStart new topic
1 User(s) are reading this topic (1 Guests and 0 Anonymous Users)
0 Members:

 



- Lo-Fi Version Support form
Copyrights and abuse reports form
Time is now: 24th July 2021 - 12:09:30