Welcome Guest ( Log In | Register )

> Releases Upload / Добавление релизов

Добавить релиз тут / Click here to add release
Рекомендованные обменники / Recommended file shares

> Funeral Fullmoon - Poetry Of The Death Poison (2021), Raw Black Metal (D4)
post May 11 2021, 15:49:55
Post #1

Malum dominus omnium
****
Group: Металариец
Posts: 364
Releases: 275
On Forums: 1 year 3 months
Thanks: 5496 time(s)
Vatican City


(IMG:https://metalarea.org/images/audiocovers/2021_May/acov_tid350755_thumb.jpg)

*Artist: Funeral Fullmoon
*Album: Poetry Of The Death Poison
*Year: 2021
*Genre: Raw Black Metal
*Country: Chile (IMG:https://metalarea.org/forum/style_images/flags/Chile.png)
*Format: mp3@CBR320kbps
*Size: 69MB

Tracklist:
1. Poetry of the Death Poison 07:25
2. Beyond the Pain 05:48
3. Nokturnal Prayer 05:14
4. In the Night of Dark Ruins 09:28
******************************
Total playing time: 27:55


(IMG:https://metalarea.org/images/youtube.png)
Metal Archives

Extended info
Belongs to the Pure Raw Underground Black Metal Plague circle


Technical info
(IMG:https://metalarea.org/images/spectrogram/2021_May/465fdfd95a858a7bf111311393432998.png)
Input File: Funeral Fullmoon - Poetry of the Death Poison.mp3
Channels : 2
Sample Rate : 48000
Precision : 16-bit
Duration : 00:08:52.90 = 25579344 samples ~ 39967.7 CDDA sectors
File Size : 21.3M
Bit Rate : 320k
Sample Encoding: MPEG audio (layer I, II or III)
Comments :
Title=Poetry of the Death Poison
Artist=Funeral Fullmoon
Album=Poetry of the Death Poison
Tracknumber=1
Year=2021
Genre=Raw Black Metal



Register


Go to the top of the page
  Insert nick Quick quote
+Quote Post
 
Start new topic
Replies (1 - 2)
post May 12 2021, 19:32:09
Post #2

While Waiting the Worms
**********
Group: Металариец
Posts: 1,317
Releases: 0
On Forums: 7 years 5 months
Thanks: 1973 time(s)
Unknown


Понятная олдскульная манера, каноническое "сыроватое" звучание.
И совершенно пресный стафф.
Да там почти всё такое же, в этом чилийском Круге.
Go to the top of the page
  Insert nick Quick quote
+Quote Post
post May 15 2021, 00:36:32
Post #3

Absorbence
***********
Group: Металариец
Posts: 1,789
Releases: 216
From: Vastland Abyss of Cthulhu
On Forums: 14 years 7 months
Thanks: 3919 time(s)
Canada


awesome work, thanks (IMG:style_emoticons/default/20.gif)
Go to the top of the page
  Insert nick Quick quote
+Quote Post

Reply to this topicStart new topic
2 User(s) are reading this topic (2 Guests and 0 Anonymous Users)
0 Members:

 



- Lo-Fi Version Support form
Copyrights and abuse reports form
Time is now: 19th June 2021 - 11:15:55