Welcome Guest ( Log In | Register )

> И неформату есть предел.

Рэп/хип-хоп/шансон/поп удаляются. Для них есть свои порталы.

 
Reply to this topicStart new topic
> John Uzonyi's Peacepipe - Peacepipe (1970), Heavy Psychedelic Rock
post May 11 2021, 18:42:05
Post #1

Правь статус, ####!111
**************
Group: Металариец
Posts: 49,258
Releases: 875
On Forums: 12 years 4 months
Thanks: 44856 time(s)
Russian Federation


(IMG:http://metalarea.org/images/audiocovers/2021_May/acov_tid350763_thumb.jpg)

*Artist: John Uzonyi's Peacepipe
*Album: Peacepipe
*Year: 1970
*Genre: Heavy Psychedelic Rock
*Country: United States (IMG:http://metalarea.org/forum/style_images/flags/United%20States.png)
*Format: mp3@CBR320kbps
*Size: 114MB

Tracklist:
1. Sea Of Nightmares 06:26
2. Angel Of Love 04:10
3. I Can Never Take Your Dreams Away 06:24
4. Carry On Together 02:43
5. A Bikers Tune 02:49
6. Open Your Mind 04:49
7. The Day The War Has Ended 10:08
8. Love Shines 03:12
9. Keep A Smilin' Cari 02:49
10. The Sun Won't Shine Forever 02:51
11. Lazy River Blues 03:39
******************************
Total playing time: 50:00

(IMG:http://metalarea.org/images/youtube.png)

Technical info
(IMG:http://metalarea.org/images/spectrogram/2021_May/4edaec9aa5369c8c9b7a2153a9bd83df.png)
Input File: 02 - Angel Of Love.mp3
Channels : 2
Sample Rate : 44100
Precision : 16-bit
Duration : 00:04:10.56 = 11049564 samples = 18791.8 CDDA sectors
File Size : 10.0M
Bit Rate : 320k
Sample Encoding: MPEG audio (layer I, II or III)
Comments :
Title=Angel Of Love
Artist=Jon Uzonyi's Peacepipe
Album=Peacepipe
Tracknumber=2
Year=1970
Genre=Progressive Rock



Register


Go to the top of the page
  Insert nick Quick quote
+Quote Post

Reply to this topicStart new topic
1 User(s) are reading this topic (1 Guests and 0 Anonymous Users)
0 Members:

 



- Lo-Fi Version Support form
Copyrights and abuse reports form
Time is now: 20th October 2021 - 15:12:09