Welcome Guest ( Log In | Register )

> И неформату есть предел.

Рэп/хип-хоп/шансон/поп удаляются. Для них есть свои порталы.

 
Reply to this topicStart new topic
> Euclid - Heavy Equipment (1970), Acid/Hard Rock
post May 11 2021, 19:47:26
Post #1

Правь статус, ####!111
**************
Group: Металариец
Posts: 49,214
Releases: 869
On Forums: 12 years 3 months
Thanks: 44674 time(s)
Russian Federation


(IMG:http://metalarea.org/images/audiocovers/2021_May/acov_tid350765_thumb.jpg)

*Artist: Euclid
*Album: Heavy Equipment
*Year: 1970
*Genre: Acid/Hard Rock
*Country: United States (IMG:http://metalarea.org/forum/style_images/flags/United%20States.png)
*Format: mp3@CBR320kbps
*Size: 77MB

Tracklist:
1. Shadows Of Life 11:32
2. Gimme Some Lovin' 03:38
3. First Time Last Time 02:52
4. Lazy Livin' 05:57
5. 97 Days 03:11
6. She's Gone 02:47
7. It's All Over Now 03:23
******************************
Total playing time: 33:20

(IMG:http://metalarea.org/images/youtube.png)

Technical info
(IMG:http://metalarea.org/images/spectrogram/2021_May/0aa49d7607535588daa502ce1198f817.png)
Input File: 01 - Shadows of Life, On the Way, Bye Bye Baby.mp3
Channels : 2
Sample Rate : 44100
Precision : 16-bit
Duration : 00:11:35.66 = 30678430 samples = 52174.2 CDDA sectors
File Size : 27.9M
Bit Rate : 320k
Sample Encoding: MPEG audio (layer I, II or III)
Comments :
Title=Shadows of Life, On the Way, Bye Bye Baby
Artist=Euclid
Album=Heavy Equipment
Tracknumber=1
Year=2005



Register


Go to the top of the page
  Insert nick Quick quote
+Quote Post

Reply to this topicStart new topic
1 User(s) are reading this topic (1 Guests and 0 Anonymous Users)
0 Members:

 



- Lo-Fi Version Support form
Copyrights and abuse reports form
Time is now: 23rd September 2021 - 18:03:42