Welcome Guest ( Log In | Register )

 
Reply to this topicStart new topic
> Anapilin - Neganda [single] (2020), Black Metal
post May 12 2021, 10:31:16
Post #1

Правь статус, ####!111
**************
Group: Металариец
Posts: 5,001
Releases: 441
From: MoscoW
On Forums: 14 years 7 months
Thanks: 7203 time(s)
Russian Federation


(IMG:https://metalarea.org/images/audiocovers/2021_May/acov_tid350779_thumb.jpg)

*Artist: Anapilin
*Album: Neganda [single]
*Year: 2020
*Genre: Black Metal
*Country: Lithuania (IMG:https://metalarea.org/forum/style_images/flags/Lithuania.png)
*Format: mp3@CBR320kbps
*Size: 14MB

Tracklist:
01. Neganda 05:56
******************************
Total playing time: 5:56

Extended info




Technical info
(IMG:https://metalarea.org/images/spectrogram/2021_May/4a62c76f0dcd333a152f63dd4b334343.png)
Input File: 01. Neganda.mp3
Channels : 2
Sample Rate : 44100
Precision : 16-bit
Duration : 00:05:56.67 = 15729103 samples = 26750.2 CDDA sectors
File Size : 14.4M
Bit Rate : 323k
Sample Encoding: MPEG audio (layer I, II or III)
Comments :
Title=Neganda
Artist=Anapilin
Year=2019



Register


Go to the top of the page
  Insert nick Quick quote
+Quote Post

Reply to this topicStart new topic
1 User(s) are reading this topic (1 Guests and 0 Anonymous Users)
0 Members:

 



- Lo-Fi Version Support form
Copyrights and abuse reports form
Time is now: 24th July 2021 - 12:03:31