Welcome Guest ( Log In | Register )

 
Reply to this topicStart new topic
> Drugoth - Militaristic Division Of Chaos [ep] (2020), Black Metal/Crust (D)
post May 12 2021, 14:26:19
Post #1

Serial Uploader
Group Icon
Group: V.I.P
Posts: 37,612
Releases: 35784
From: Lithuania
On Forums: 13 years 3 months
Thanks: 433499 time(s)
Lithuania


(IMG:https://metalarea.org/images/audiocovers/2021_May/acov_tid350780_thumb.jpg)

*Artist: Drugoth
*Album: Militaristic Division Of Chaos [ep]
*Year: 2020
*Genre: Black Metal/Crust
*Country: Australia (IMG:https://metalarea.org/forum/style_images/flags/Australia.png)
*Format: mp3@CBR320kbps
*Size: 30MB

Tracklist:
01. Winds of Destruction 02:02
02. Battlefield Chaos Aftermath 01:25
03. Defiler 01:25
04. Militaristic Division of Chaos 01:32
05. Marching Under Banners of Darkness 01:23
06. Vengeance Aflame 01:25
07. The Will of Death 03:01
******************************
Total playing time: 12:13


Preview 2


Technical info
(IMG:https://metalarea.org/images/spectrogram/2021_May/b68f6cc347a89df05d7a92531e623a03.png)
Input File: DRUGOTH - MILITARISTIC DIVISION OF CHAOS - EP - 02 BATTLEFIELD CHAOS AFTERMATH.mp3
Channels : 2
Sample Rate : 44100
Precision : 16-bit
Duration : 00:01:25.56 = 3772976 samples = 6416.63 CDDA sectors
File Size : 3.67M
Bit Rate : 343k
Sample Encoding: MPEG audio (layer I, II or III)
Comments :
Title=BATTLEFIELD CHAOS AFTERMATH
Artist=DRUGOTH
Album=MILITARISTIC DIVISION OF CHAOS - EP
Tracknumber=2
Year=2020



Register


Go to the top of the page
  Insert nick Quick quote
+Quote Post

Reply to this topicStart new topic
1 User(s) are reading this topic (1 Guests and 0 Anonymous Users)
0 Members:

 



- Lo-Fi Version Support form
Copyrights and abuse reports form
Time is now: 19th September 2021 - 17:21:46