Welcome Guest ( Log In | Register )

> Mortalis - Infinite Imprint (2017), Melodic Thrash Metal
post May 12 2021, 14:37:44
Post #1

Шесть Литров
******
Group: Металариец
Posts: 536
Releases: 481
On Forums: 3 months 1 week
Thanks: 11629 time(s)
United States


(IMG:http://metalarea.org/images/audiocovers/2021_May/acov_tid350781_thumb.jpg)

*Artist: Mortalis
*Album: Infinite Imprint
*Year: 2017
*Genre: Melodic Thrash Metal
*Country: Canada (IMG:http://metalarea.org/forum/style_images/flags/Canada.png)
*Format: mp3@CBR320kbps
*Size: 67MB

Tracklist:
01. Indelible 04:47
02. War Be Sustained 03:47
03. The Fallen 03:55
04. Burning Alters 04:10
05. Infinite Imprint 06:21
06. Curse The Serpent 03:43
******************************
Total playing time: 26:43



Technical info
(IMG:http://metalarea.org/images/spectrogram/2021_May/b1c65e6f9a0f886c360fda7e89699f5d.png)
Input File: 02. War Be Sustained.mp3
Channels : 2
Sample Rate : 44100
Precision : 16-bit
Duration : 00:03:46.03 = 9967791 samples = 16952 CDDA sectors
File Size : 9.09M
Bit Rate : 322k
Sample Encoding: MPEG audio (layer I, II or III)
Comments :
Title=War Be Sustained
Artist=Mortalis
Album=Infinite Imprint
Tracknumber=2
Year=2017-11-10
Genre=Metal
Discnumber=1



Register


Go to the top of the page
  Insert nick Quick quote
+Quote Post
 
Start new topic
Replies (1 - 1)
post May 13 2021, 09:59:59
Post #2

Common dweller of hell
**************
Group: Металариец
Posts: 3,905
Releases: 12
From: Dnipro
On Forums: 13 years 3 weeks
Thanks: 1531 time(s)
Ukraine


Местами изрядно попахивает MDM'ом






Go to the top of the page
  Insert nick Quick quote
+Quote Post

Reply to this topicStart new topic
1 User(s) are reading this topic (1 Guests and 0 Anonymous Users)
0 Members:

 



- Lo-Fi Version Support form
Copyrights and abuse reports form
Time is now: 5th August 2021 - 18:05:21