Welcome Guest ( Log In | Register )

> Mørk Visdom - Obscure Symphonies (The Cursed Chant Of The Fallen Angels) (2021), Black Metal
post May 12 2021, 16:36:42
Post #1

Правь статус, ####!111
**************
Group: Металариец
Posts: 5,003
Releases: 441
From: MoscoW
On Forums: 14 years 9 months
Thanks: 7388 time(s)
Russian Federation


(IMG:https://metalarea.org/images/audiocovers/2021_May/acov_tid350783_thumb.jpg)

*Artist: Mørk Visdom
*Album: Obscure Symphonies (The Cursed Chant Of The Fallen Angels)
*Year: 2021
*Genre: Black Metal
*Country: Brazil (IMG:https://metalarea.org/forum/style_images/flags/Brazil.png)
*Format: mp3@CBR320kbps
*Size: 96MB

Tracklist:
01. Beginning The Dark Infernal Act 01:51
02. OdiVm A Christo 04:32
03. Among The Master Of Black Shadows 03:40
04. Obscure Symphonies (The Cursed Chant Of The Fallen Angels) 05:26
05. Interlude Of Chaos, The Profane Wisdom 03:13
06. From The Deepest Abyss, The Blood Offered 04:52
07. Unholy Army (We Salute Of Angel Of The Light) 03:53
08. The Dark Breath In The Black Wind 04:04
09. Morbid Melancholy, The Cry Of Lost Souls 05:04
10. The Question Of Last Chapter ...?... 04:48
******************************
Total playing time: 41:23

Extended info



Technical info
(IMG:https://metalarea.org/images/spectrogram/2021_May/d71fea6aaebf4255a1661d79aa6d9f82.png)
Input File: 01. Beginning The Dark Infernal Act.mp3
Channels : 2
Sample Rate : 44100
Precision : 16-bit
Duration : 00:01:51.81 = 4930821 samples = 8385.75 CDDA sectors
File Size : 4.47M
Bit Rate : 320k
Sample Encoding: MPEG audio (layer I, II or III)



Register


Go to the top of the page
  Insert nick Quick quote
+Quote Post
 
Start new topic
Replies (1 - 4)
post May 13 2021, 17:12:50
Post #2

Правь статус, ####!111
**************
Group: Металариец
Posts: 5,003
Releases: 441
From: MoscoW
On Forums: 14 years 9 months
Thanks: 7388 time(s)
Russian Federation


Опять 320kbps попал в Low Bitrate!!!
Как так получается???
Go to the top of the page
  Insert nick Quick quote
+Quote Post
post May 13 2021, 19:25:39
Post #3

Ретроград
**************
Group: Металариец
Posts: 5,256
Releases: 210
On Forums: 14 years 3 months
Thanks: 8593 time(s)
Vatican City


ЦИТАТА(satanist666 @ May 13 2021, 19:12:50) *
Опять 320kbps попал в Low Bitrate!!!
Как так получается???

Ну видимо посчитали, что по спектрам не проходит...


Go to the top of the page
  Insert nick Quick quote
+Quote Post
post May 15 2021, 13:47:55
Post #4

Четыре Литра
****
Group: Металариец
Posts: 389
Releases: 0
On Forums: 12 years 3 months
Thanks: 105 time(s)
Russian Federation


пож другую ссилку дайте
Go to the top of the page
  Insert nick Quick quote
+Quote Post
post May 15 2021, 14:27:53
Post #5
BAN
Banned till
May 25 4759, 10:34:46



ЦИТАТА(satanist666 @ May 13 2021, 17:12:50) *
Опять 320kbps попал в Low Bitrate!!!
Как так получается???

Это стимовый рип с подрезкой по частотам и размещенная в сеть самой группой. Действительно не в лучшем качестве. В отличие от Balmog - Eve где мp3 кодировка срезала большую часть частот, что при просмотре спектрографии вполне классифицируется как low-- хотя на самом деле это не так.


Go to the top of the page
  Insert nick Quick quote
+Quote Post

Reply to this topicStart new topic
2 User(s) are reading this topic (2 Guests and 0 Anonymous Users)
0 Members:

 



- Lo-Fi Version Support form
Copyrights and abuse reports form
Time is now: 24th September 2021 - 08:15:29