Welcome Guest ( Log In | Register )

 
Reply to this topicStart new topic
> Legio Inferi - Não Existem Sacrifícios... Apenas Deixe De Existir [ep] (2020), Black Metal
post May 12 2021, 17:08:06
Post #1

Правь статус, ####!111
**************
Group: Металариец
Posts: 5,001
Releases: 441
From: MoscoW
On Forums: 14 years 8 months
Thanks: 7266 time(s)
Russian Federation


(IMG:https://metalarea.org/images/audiocovers/2021_May/acov_tid350784_thumb.jpg)

*Artist: Legio Inferi
*Album: Não Existem Sacrifícios... Apenas Deixe De Existir [ep]
*Year: 2020
*Genre: Black Metal
*Country: Brazil (IMG:https://metalarea.org/forum/style_images/flags/Brazil.png)
*Format: mp3@CBR320kbps
*Size: 21MB

Tracklist:
01. Não Existem Sacrifícios... Apenas Deixe De Existir 04:26
02. Regresse Ao Caminho Do Desespero 04:39
******************************
Total playing time: 9:05

Extended info



Technical info
(IMG:https://metalarea.org/images/spectrogram/2021_May/9c9fa85360fde5758643edc4a30b9de2.png)
Input File: 01. Não Existem Sacrifícios... Apenas Deixe De Existir.mp3
Channels : 2
Sample Rate : 44100
Precision : 16-bit
Duration : 00:04:26.44 = 11749916 samples = 19982.9 CDDA sectors
File Size : 10.7M
Bit Rate : 320k
Sample Encoding: MPEG audio (layer I, II or III)



Register


Go to the top of the page
  Insert nick Quick quote
+Quote Post

Reply to this topicStart new topic
1 User(s) are reading this topic (1 Guests and 0 Anonymous Users)
0 Members:

 



- Lo-Fi Version Support form
Copyrights and abuse reports form
Time is now: 5th August 2021 - 18:41:05