Welcome Guest ( Log In | Register )

 
Reply to this topicStart new topic
> Drastic Of Sorts - Drastic Of Sorts (2020), Progressive Metal
post May 12 2021, 17:23:09
Post #1

на аватаре не я
**************
Group: Металариец
Posts: 5,291
Releases: 9
From: "Самопровозглашенная ДНР" (с)
On Forums: 12 years 3 weeks
Thanks: 2764 time(s)
Russian Federation


(IMG:http://metalarea.org/images/audiocovers/2021_May/acov_tid350785_thumb.jpg)

*Artist: Drastic Of Sorts
*Album: Drastic Of Sorts
*Year: 2020
*Genre: Progressive Metal
*Country: United States (IMG:http://metalarea.org/forum/style_images/flags/United%20States.png)
*Format: mp3@CBR320kbps
*Size: 118MB

Tracklist:
1. Preface
2. Secluded
3. Volition
4. Mind or Body
5. Persecution Complex (feat. Alex Baltes)
6. Doves
7. Suspension
8. Chronicle in Vain (feat. Gabe Pietrzak)
9. Ahold of Fate
10. Contour of Fear (feat. Eric Guenther)
11. Slumber of the Gods
12. Addendum
******************************
Total playing time: 50:42

(IMG:http://metalarea.org/images/youtube.png)

Extended info
Приятный для слуха и в меру навороченный прог-метал


Technical info
(IMG:http://metalarea.org/images/spectrogram/2021_May/2f7e3bd16d11b7e43016c16f0583f9ad.png)
Input File: 05 - Percecution Complex (feat. Alex Baltes).mp3
Channels : 2
Sample Rate : 44100
Precision : 16-bit
Duration : 00:07:26.59 = 19694663 samples = 33494.3 CDDA sectors
File Size : 17.9M
Bit Rate : 321k
Sample Encoding: MPEG audio (layer I, II or III)
Comments :
Title=Percecution Complex (feat. Alex Baltes)
Artist=Drastic of Sorts/Alex Baltes
Album=Drastic of Sorts
Tracknumber=5
Year=2020
Discnumber=1/1



Register


Go to the top of the page
  Insert nick Quick quote
+Quote Post
post May 15 2021, 08:42:01
Post #2

hearer & reader
**************
Group: Металариец
Posts: 9,814
Releases: 172
From: Moscow
On Forums: 13 years 10 months
Thanks: 11073 time(s)
Russian Federation



Молодец парень.
Go to the top of the page
  Insert nick Quick quote
+Quote Post
post May 15 2021, 12:25:07
Post #3

на аватаре не я
**************
Group: Металариец
Posts: 5,291
Releases: 9
From: "Самопровозглашенная ДНР" (с)
On Forums: 12 years 3 weeks
Thanks: 2764 time(s)
Russian Federation


ЦИТАТА(AHBAnep @ May 15 2021, 10:42:01) *

Молодец парень.

Причем на ФБ у него очень мало подписчиков. Весьма недооцененный проект.
Go to the top of the page
  Insert nick Quick quote
+Quote Post

Reply to this topicStart new topic
1 User(s) are reading this topic (1 Guests and 0 Anonymous Users)
0 Members:

 



- Lo-Fi Version Support form
Copyrights and abuse reports form
Time is now: 29th July 2021 - 13:39:03