Welcome Guest ( Log In | Register )

> Releases Upload / Добавление релизов

Добавить релиз тут / Click here to add release
Рекомендованные обменники / Recommended file shares

 
Reply to this topicStart new topic
> Legio Inferi - Tragédias Do Infinito Nascer (2014), Black Metal
post May 12 2021, 17:47:26
Post #1

Правь статус, ####!111
**************
Group: Металариец
Posts: 4,856
Releases: 374
From: MoscoW
On Forums: 14 years 6 months
Thanks: 6327 time(s)
Russian Federation


(IMG:https://metalarea.org/images/audiocovers/2021_May/acov_tid350786_thumb.jpg)

*Artist: Legio Inferi
*Album: Tragédias Do Infinito Nascer
*Year: 2014
*Genre: Black Metal
*Country: Brazil (IMG:https://metalarea.org/forum/style_images/flags/Brazil.png)
*Format: mp3@CBR320kbps
*Size: 87MB

Tracklist:
01. Devorando As Partes Da Alma 07:50
02. Nascido Do Ventre Apodrecido 05:15
03. Da Carne Ao Obscuro 08:55
04. Ária A Sabedoria Da Morte 05:17
05. Tragédias Do Infinito Nascer 02:44
06. Luna Viam Illustrat (Instrumental) 01:12
07. Do Altar Para Eternidade (Instrumental) 05:22
******************************
Total playing time: 36:35

Extended info



Technical info
(IMG:https://metalarea.org/images/spectrogram/2021_May/9a4da0ccd0a395dbaf50a286969e6738.png)
Input File: 01. Devorando As Partes Da Alma.mp3
Channels : 2
Sample Rate : 44100
Precision : 16-bit
Duration : 00:07:50.70 = 20757870 samples = 35302.5 CDDA sectors
File Size : 18.8M
Bit Rate : 320k
Sample Encoding: MPEG audio (layer I, II or III)



Register


Go to the top of the page
  Insert nick Quick quote
+Quote Post

Reply to this topicStart new topic
1 User(s) are reading this topic (1 Guests and 0 Anonymous Users)
0 Members:

 



- Lo-Fi Version Support form
Copyrights and abuse reports form
Time is now: 18th June 2021 - 12:29:52