Welcome Guest ( Log In | Register )

> Releases Upload / Добавление релизов

Добавить релиз тут / Click here to add release
Рекомендованные обменники / Recommended file shares

 
Reply to this topicStart new topic
> Malediction 666 - We, Demons (2019), Death/Black Metal
post May 12 2021, 18:25:14
Post #1

Правь статус, ####!111
**************
Group: Металариец
Posts: 4,856
Releases: 374
From: MoscoW
On Forums: 14 years 6 months
Thanks: 6327 time(s)
Russian Federation


(IMG:https://metalarea.org/images/audiocovers/2021_May/acov_tid350787_thumb.jpg)

*Artist: Malediction 666
*Album: We, Demons
*Year: 2019
*Genre: Death/Black Metal
*Country: Brazil (IMG:https://metalarea.org/forum/style_images/flags/Brazil.png)
*Format: mp3@CBR320kbps
*Size: 81MB

Tracklist:
01. Before Times 02:33
02. We, Demons 03:04
03. From The Infernal Womb 02:48
04. Unmasked Savior (Feat. Sakis Tolis of Rotting Christ) 03:13
05. Summon The God Inside You 03:13
06. Portal 04:08
07. Forgotten Rage 04:42
08. Cursed Penumbra (Feat. Stephan Necroabyssious of Varathron) 03:49
09. All Hail The Serpent King 03:14
10. Look Into The Eyes Of Death 04:08
******************************
Total playing time: 34:52

Extended info




Technical info
(IMG:https://metalarea.org/images/spectrogram/2021_May/7b750d30f4bcad4ffc8fc8161ddc9165.png)
Input File: 01. Before Times.mp3
Channels : 2
Sample Rate : 44100
Precision : 16-bit
Duration : 00:02:33.48 = 6768336 samples = 11510.8 CDDA sectors
File Size : 6.14M
Bit Rate : 320k
Sample Encoding: MPEG audio (layer I, II or III)



Register


Go to the top of the page
  Insert nick Quick quote
+Quote Post

Reply to this topicStart new topic
1 User(s) are reading this topic (1 Guests and 0 Anonymous Users)
0 Members:

 



- Lo-Fi Version Support form
Copyrights and abuse reports form
Time is now: 18th June 2021 - 12:43:28