Welcome Guest ( Log In | Register )

 
Reply to this topicStart new topic
> Lalssu - The Elements (2020), Ambient/Doom/Black Metal
post May 12 2021, 18:51:10
Post #1

Правь статус, ####!111
**************
Group: Металариец
Posts: 5,001
Releases: 441
From: MoscoW
On Forums: 14 years 9 months
Thanks: 7375 time(s)
Russian Federation


(IMG:https://metalarea.org/images/audiocovers/2021_May/acov_tid350788_thumb.jpg)

*Artist: Lalssu
*Album: The Elements
*Year: 2020
*Genre: Ambient/Doom/Black Metal
*Country: Brazil (IMG:https://metalarea.org/forum/style_images/flags/Brazil.png)
*Format: mp3@CBR128kbps (IMG:https://metalarea.org/images/bit_low.gif)
*Size: 35MB

Tracklist:
01. Ethereal 03:39
02. The Betrayer From The Ocean 07:35
03. Volcanic Echoes 08:04
04. Dancing With The Devil 05:49
05. Sands Of Time 02:35
06. Enlil 08:09
******************************
Total playing time: 35:51

Extended info



Technical info
(IMG:https://metalarea.org/images/spectrogram/2021_May/6933d4870966b86a1205d884c76fe7f3.png)
Input File: 01. Ethereal.mp3
Channels : 2
Sample Rate : 44100
Precision : 16-bit
Duration : 00:03:39.56 = 9682640 samples = 16467.1 CDDA sectors
File Size : 3.59M
Bit Rate : 131k
Sample Encoding: MPEG audio (layer I, II or III)
Comments :
Title=Ethereal
Artist=LALSSU
Album=The Elements
Tracknumber=1/6
Year=2020



Register


Go to the top of the page
  Insert nick Quick quote
+Quote Post

Reply to this topicStart new topic
1 User(s) are reading this topic (1 Guests and 0 Anonymous Users)
0 Members:

 



- Lo-Fi Version Support form
Copyrights and abuse reports form
Time is now: 18th September 2021 - 13:53:28