Welcome Guest ( Log In | Register )

 
Reply to this topicStart new topic
> Vomit Ritual - Callous (2021), Black/Death Metal (D4)
post May 12 2021, 20:15:53
Post #1

Правь статус, ####!111
**************
Group: Металариец
Posts: 26,644
Releases: 19190
From: Г.Харьков
On Forums: 9 years 2 months
Thanks: 384006 time(s)
Unknown


(IMG:https://metalarea.org/images/audiocovers/2021_May/acov_tid350790_thumb.jpg)

*Artist: Vomit Ritual
*Album: Callous
*Year: 2021
*Genre: Black/Death Metal
*Country: United States (IMG:https://metalarea.org/forum/style_images/flags/United%20States.png)
*Format: mp3@CBR320kbps
*Size: 75MB

Tracklist:
1. Strangling Opposing Throats 02:25
2. Asphyxiated 05:26
3. Paracusia Nexus 01:36
4. Lower Vibrational Entities 04:55
5. Penetrating The Infectious Wound 04:03
6. Sadolustic Crucifixions 04:45
7. Nervous Temple 10:28
******************************
Total playing time: 33:38



Extended info
SexGoat Sodomizer Bass
See also: Sexblasphemy
Ominous Carnality Drums
See also: Ancient Grave, Sexblasphemy
Sado Chaos Vocals, Guitars
See also: The Perpetual Wound, ex-Decimation, ex-Nuclear Desecration


Technical info
(IMG:https://metalarea.org/images/spectrogram/2021_May/43e80ced526d6c178c0525cfa262293d.png)
Input File: 06. Sadolustic Crucifixions.mp3
Channels : 2
Sample Rate : 44100
Precision : 16-bit
Duration : 00:04:45.17 = 12575777 samples = 21387.4 CDDA sectors
File Size : 11.4M
Bit Rate : 320k
Sample Encoding: MPEG audio (layer I, II or III)
Comments :
Title=Sadolustic Crucifixions
Artist=Vomit Ritual
Album=Callous
Tracknumber=6
Year=2021
Genre=Metal



Register


Go to the top of the page
  Insert nick Quick quote
+Quote Post
post May 13 2021, 09:12:52
Post #2

Маньяк
**********
Group: Металариец
Posts: 1,066
Releases: 1
From: APATIN, SERBIA, АПАТИН, СЕРБИЯ
On Forums: 13 years 8 months
Thanks: 2437 time(s)



Flac

Register


Go to the top of the page
  Insert nick Quick quote
+Quote Post
post May 13 2021, 13:32:33
Post #3

а ты попал в даунтаун
***********
Group: Металариец
Posts: 1,565
Releases: 59
From: Москва
On Forums: 12 years 3 months
Thanks: 4310 time(s)
Russian Federation


Ого, кто разродился-то! Неожиданно.


Thanks:
Go to the top of the page
  Insert nick Quick quote
+Quote Post

Reply to this topicStart new topic
1 User(s) are reading this topic (1 Guests and 0 Anonymous Users)
0 Members:

 



- Lo-Fi Version Support form
Copyrights and abuse reports form
Time is now: 24th July 2021 - 09:30:29