Welcome Guest ( Log In | Register )

> Vomit Ritual - Callous (2021), Black/Death Metal (D4)
post May 12 2021, 20:15:53
Post #1

Правь статус, ####!111
**************
Group: Металариец
Posts: 27,423
Releases: 19881
From: Г.Харьков
On Forums: 9 years 4 months
Thanks: 401030 time(s)
Unknown


(IMG:https://metalarea.org/images/audiocovers/2021_May/acov_tid350790_thumb.jpg)

*Artist: Vomit Ritual
*Album: Callous
*Year: 2021
*Genre: Black/Death Metal
*Country: United States (IMG:https://metalarea.org/forum/style_images/flags/United%20States.png)
*Format: mp3@CBR320kbps
*Size: 75MB

Tracklist:
1. Strangling Opposing Throats 02:25
2. Asphyxiated 05:26
3. Paracusia Nexus 01:36
4. Lower Vibrational Entities 04:55
5. Penetrating The Infectious Wound 04:03
6. Sadolustic Crucifixions 04:45
7. Nervous Temple 10:28
******************************
Total playing time: 33:38



Extended info
SexGoat Sodomizer Bass
See also: Sexblasphemy
Ominous Carnality Drums
See also: Ancient Grave, Sexblasphemy
Sado Chaos Vocals, Guitars
See also: The Perpetual Wound, ex-Decimation, ex-Nuclear Desecration


Technical info
(IMG:https://metalarea.org/images/spectrogram/2021_May/43e80ced526d6c178c0525cfa262293d.png)
Input File: 06. Sadolustic Crucifixions.mp3
Channels : 2
Sample Rate : 44100
Precision : 16-bit
Duration : 00:04:45.17 = 12575777 samples = 21387.4 CDDA sectors
File Size : 11.4M
Bit Rate : 320k
Sample Encoding: MPEG audio (layer I, II or III)
Comments :
Title=Sadolustic Crucifixions
Artist=Vomit Ritual
Album=Callous
Tracknumber=6
Year=2021
Genre=Metal



Register


Go to the top of the page
  Insert nick Quick quote
+Quote Post
 
Start new topic
Replies (1 - 4)
post May 13 2021, 09:12:52
Post #2

Маньяк
**********
Group: Металариец
Posts: 1,149
Releases: 1
From: APATIN, SERBIA, АПАТИН, СЕРБИЯ
On Forums: 13 years 11 months
Thanks: 2732 time(s)



Flac

Register


Go to the top of the page
  Insert nick Quick quote
+Quote Post
post May 13 2021, 13:32:33
Post #3

а ты попал в даунтаун
***********
Group: Металариец
Posts: 1,570
Releases: 59
From: Москва
On Forums: 12 years 5 months
Thanks: 4318 time(s)
Russian Federation


Ого, кто разродился-то! Неожиданно.


Thanks:
Go to the top of the page
  Insert nick Quick quote
+Quote Post
post Aug 24 2021, 13:07:55
Post #4

ЗмееЛев
********
Group: Металариец
Posts: 880
Releases: 18
On Forums: 10 years 5 months
Thanks: 2035 time(s)
Russian Federation


Горячий материал представлен на данной дебютной пластинке! Парни явно знают толк в деле и имеют прямые руки и мозги - семь песен пронизаны злобой, брутальностью, тьмой. Шквальные боевики сменяются густыми медленными отрезками. Парни знают, когда надо разогнаться, а когда притормозить. Только вы ловите расслабляющую волну, бац, и опять пошли шквал и ярость. При этом никуда не девается атмосфера. Альбом бережно берёт вас под ручки и относит в глухие сырые катакомбы, проникайтесь, мол. А довольному слушателю только это и надо. Относительно недавно я вникал в других американцев, отцов - Incantation. Так вот здесь присутствует очень сильное их влияние. А слушать ночью так вообще красота. Особенно здато получилось, когда на заднем плане основного вокала звучат какие то крики, вопли, протяжный вой, очень кайфово получилось. Короче, топовый альбом, рекомендации.
Go to the top of the page
  Insert nick Quick quote
+Quote Post
post Aug 24 2021, 14:30:07
Post #5

Самый Тихий Час
**************
Group: Металариец
Posts: 6,644
Releases: 8
On Forums: 11 years 10 months
Thanks: 3128 time(s)
Unknown


Бодрый богохульный рок!
Тоже сегодня ознакомился...
Go to the top of the page
  Insert nick Quick quote
+Quote Post

Reply to this topicStart new topic
2 User(s) are reading this topic (2 Guests and 0 Anonymous Users)
0 Members:

 



- Lo-Fi Version Support form
Copyrights and abuse reports form
Time is now: 24th September 2021 - 06:18:27