Welcome Guest ( Log In | Register )

> Правила / Rules

Тут только для чтения лежат низкобитрейтные (<192kbps) релизы, для которых есть аналоги в высокобитрейтных форумах.

Here goes (and stand in read only mode) low bitrate releases (<192kbps) which were already replaced by high bitrate releases in corresponding forums.

Причина закрытия (Абигор 12-06-2021): Black Spirit - El Sueño De La Razón Produce Monstruos (2021)
 
Closed TopicStart new topic
> Black Spirit - El Sueño De La Razón Produce Monstruos (2021), Black Metal (D4)
post May 12 2021, 22:45:39
Post #1

Malum dominus omnium
****
Group: Металариец
Posts: 364
Releases: 275
On Forums: 1 year 3 months
Thanks: 5496 time(s)
Vatican City


(IMG:https://metalarea.org/images/audiocovers/2021_May/acov_tid350793_thumb.jpg)

*Artist: Black Spirit
*Album: El Sueño De La Razón Produce Monstruos
*Year: 2021
*Genre: Black Metal
*Country: Spain (IMG:https://metalarea.org/forum/style_images/flags/Spain.png)
*Format: mp3@CBR320kbps
*Size: 117MB

Tracklist:
1. El Sueño de la Razón Produce Monstruos 02:31
2. Ignorance and The Grotesque 05:13
3. Dream or a Nightmare 06:15
4. At the Edge of Conciousness 04:56
5. Disparate del miedo 01:50
6. Black Paintings 03:28
7. The Depths of Time 04:13
8. Disparate Funebre 02:29
9. The Fanatics of Oppresion 05:07
10. The Mystical Silence 04:43
11. There will Always be a yet Greater Horror 03:48
12. In the Vortex to Infinite Blackness 05:55
******************************
Total playing time: 50:28

Metal Archives
(IMG:https://metalarea.org/images/youtube.png)

Technical info
(IMG:https://metalarea.org/images/spectrogram/2021_May/ee62b04693b55541219311037a1aed50.png)
Input File: Black Spirit - 02 - Ignorance and The Grotesque.mp3
Channels : 2
Sample Rate : 48000
Precision : 16-bit
Duration : 00:05:13.11 = 15029328 samples ~ 23483.3 CDDA sectors
File Size : 12.5M
Bit Rate : 320k
Sample Encoding: MPEG audio (layer I, II or III)
Comments :
Title=Ignorance and The Grotesque
Artist=Black Spirit
Album=El Sueño De La Razón Produce Monstruos
Tracknumber=2
Year=2021
Genre=Black Metal



Register


Go to the top of the page
  Insert nick Quick quote
+Quote Post

Причина закрытия (Абигор 12-06-2021): Black Spirit - El Sueño De La Razón Produce Monstruos (2021)
Closed TopicStart new topic
2 User(s) are reading this topic (2 Guests and 0 Anonymous Users)
0 Members:

 



- Lo-Fi Version Support form
Copyrights and abuse reports form
Time is now: 19th June 2021 - 10:20:14