Welcome Guest ( Log In | Register )

> Hore - Siostry Wiedźmy (2021), Black Metal
post May 12 2021, 23:10:15
Post #1

Правь статус, ####!111
**************
Group: Металариец
Posts: 26,691
Releases: 19243
From: Г.Харьков
On Forums: 9 years 2 months
Thanks: 385137 time(s)
Unknown


(IMG:https://metalarea.org/images/audiocovers/2021_May/acov_tid350794_thumb.jpg)

*Artist: Hore
*Album: Siostry Wiedźmy
*Year: 2021
*Genre: Black Metal
*Country: Poland (IMG:https://metalarea.org/forum/style_images/flags/Poland.png)
*Format: mp3@CBR320kbps
*Size: 78MB

Tracklist:
1. Drwimy jak grom
2. Bije raz, dwa, trzy...
3. Siostry wiedźmy
4. Król Olch
5. W chrustach
6. Pieśń ma była już w grobie
7. Biesy
8. Księżnę dziś pochowano
******************************
Total playing time: 34:27




Extended info




Technical info
(IMG:https://metalarea.org/images/spectrogram/2021_May/4af96157ad865bede22c37c1646e1c43.png)
Input File: 08 - Księżnę dziś pochowano.mp3
Channels : 2
Sample Rate : 44100
Precision : 16-bit
Duration : 00:05:00.59 = 13255843 samples = 22544 CDDA sectors
File Size : 12.0M
Bit Rate : 320k
Sample Encoding: MPEG audio (layer I, II or III)
Comments :
Title=Księżnę dziś pochowano
Artist=HORE
Album=Siostry Wiedźmy
Tracknumber=8
Year=2021
Genre=Black Metal



Register


Go to the top of the page
  Insert nick Quick quote
+Quote Post
 
Start new topic
Replies (1 - 1)
post May 14 2021, 00:58:35
Post #2

Правь статус, ####!111
**************
Group: Металариец
Posts: 26,691
Releases: 19243
From: Г.Харьков
On Forums: 9 years 2 months
Thanks: 385137 time(s)
Unknown


FLAC (Tracks) 244 mb
Register


Go to the top of the page
  Insert nick Quick quote
+Quote Post

Reply to this topicStart new topic
1 User(s) are reading this topic (1 Guests and 0 Anonymous Users)
0 Members:

 



- Lo-Fi Version Support form
Copyrights and abuse reports form
Time is now: 28th July 2021 - 23:48:32