Welcome Guest ( Log In | Register )

> Releases Upload / Добавление релизов

Добавить релиз тут / Click here to add release
Рекомендованные обменники / Recommended file shares

 
Reply to this topicStart new topic
> Beholder's Cult - Our Darkest Home (2021), Doom/Gothic Metal
post May 12 2021, 23:44:30
Post #1

Четыре Литра
****
Group: Металариец
Posts: 395
Releases: 368
On Forums: 1 month 3 weeks
Thanks: 7235 time(s)
United States


(IMG:https://metalarea.org/images/audiocovers/2021_May/acov_tid350796_thumb.jpg)

*Artist: Beholder's Cult
*Album: Our Darkest Home
*Year: 2021
*Genre: Doom/Gothic Metal
*Country: Brazil (IMG:https://metalarea.org/forum/style_images/flags/Brazil.png)
*Format: mp3@CBR320kbps
*Size: 119MB

Tracklist:
01. Samsara
02. Shadows
03. Starry Queen
04. Crestfallen
05. Conceiving Silence
06. Whispers Of Dusk
07. Weight Of The Sun
08. Ivory Tower
09. Empty Inside
******************************
Total playing time: 48:53




Technical info
(IMG:https://metalarea.org/images/spectrogram/2021_May/5d5a96105b2dc953b06a2ab01939ee7f.png)
Input File: 02. Shadows.mp3
Channels : 2
Sample Rate : 44100
Precision : 16-bit
Duration : 00:05:45.67 = 15244223 samples = 25925.5 CDDA sectors
File Size : 13.9M
Bit Rate : 322k
Sample Encoding: MPEG audio (layer I, II or III)
Comments :
Title=Shadows
Artist=Beholder's Cult
Album=Our Darkest Home
Tracknumber=2
Year=2021-05-13
Genre=Metal
Discnumber=1



Register


Go to the top of the page
  Insert nick Quick quote
+Quote Post

Reply to this topicStart new topic
1 User(s) are reading this topic (1 Guests and 0 Anonymous Users)
0 Members:

 



- Lo-Fi Version Support form
Copyrights and abuse reports form
Time is now: 18th June 2021 - 13:33:48