Welcome Guest ( Log In | Register )

> Releases Upload / Добавление релизов

Добавить релиз тут / Click here to add release
Рекомендованные обменники / Recommended file shares

> .50Cal Facial Fracture - Primitive Encephalectomy (2021), Slamming Brutal Death Metal
post May 13 2021, 01:39:29
Post #1

Правь статус, ####!111
**************
Group: Металариец
Posts: 26,313
Releases: 18938
From: Г.Харьков
On Forums: 9 years 1 month
Thanks: 377504 time(s)
Unknown


(IMG:https://metalarea.org/images/audiocovers/2021_May/acov_tid350797_thumb.jpg)

*Artist: .50Cal Facial Fracture
*Album: Primitive Encephalectomy
*Year: 2021
*Genre: Slamming Brutal Death Metal
*Country: United States (IMG:https://metalarea.org/forum/style_images/flags/United%20States.png)
*Format: mp3@CBR320kbps
*Size: 65MB

Tracklist:
1. Intro 01:23
2. Carnivorous Myocardium Engorgement (ft. Cycle of Abuse) 04:20
3. Grotesque Monument of Emasculation 03:54
4. Gurgling Postmortem Afterbirth (ft. Kee of Human Menu) 04:13
5. Devoured by Artificial Transmutated Species 03:09
6. Putrid Maggot Infestation 04:37
7. Primitive Encephalectomy (ft. Ecchymosis) 05:05
******************************
Total playing time: 26:41




Extended info
Arlo Erikson All instruments (2020-present)
See also: ex-50calibectomy, Cycle of Abuse, No Nothing
BeatenAndBarbecued Vocals (2020-present)
See also: Geisha Dissection, Human Menu, Ophiocordyceps Unilateralis, Vaginal Mastication, ex-50calibectomy


Technical info
(IMG:https://metalarea.org/images/spectrogram/2021_May/ca42b8d402f0254a3f25de1567e9c71d.png)
Input File: 07. Primitive Encephalectomy.mp3
Channels : 2
Sample Rate : 44100
Precision : 16-bit
Duration : 00:05:05.86 = 13488470 samples = 22939.6 CDDA sectors
File Size : 12.8M
Bit Rate : 334k
Sample Encoding: MPEG audio (layer I, II or III)
Comments :
Title=Primitive Encephalectomy
Artist=.50Cal Facial Fracture
Album=Primitive Encephalectomy (320)
Tracknumber=07
Year=2021
Genre=Metal



Register


Go to the top of the page
  Insert nick Quick quote
+Quote Post
 
Start new topic
Replies (1 - 5)
post May 13 2021, 09:09:39
Post #2

Маньяк
**********
Group: Металариец
Posts: 1,033
Releases: 1
From: APATIN, SERBIA, АПАТИН, СЕРБИЯ
On Forums: 13 years 7 months
Thanks: 2256 time(s)



Flac

Register


Thanks:
Go to the top of the page
  Insert nick Quick quote
+Quote Post
post May 13 2021, 09:47:32
Post #3

Чёткий пацан из Автово...
Group Icon
Group: V.I.P
Posts: 9,330
Releases: 40
From: Город над вольной Невой...
On Forums: 14 years 11 months
Thanks: 4814 time(s)
Russian Federation


Воу воу воу!
Очень жирно, раскачивающе и всё как я люблю! (IMG:style_emoticons/default/smile1.gif)
Ничего нового по факту, но нравится, а.
26 минут - идеальное время для таких хрюканий под тяжеловесные гитарки!
Go to the top of the page
  Insert nick Quick quote
+Quote Post
post May 13 2021, 21:01:04
Post #4

Group: Подсевший
Posts: 32
Releases: 0
On Forums: 1 year 1 month
Thanks: 13 time(s)
Poland


Привязал к писе гирьку и потягал, медленно раскачивая под качевые гитарки. Норм, удлинить писю пойдет.
Go to the top of the page
  Insert nick Quick quote
+Quote Post
post May 13 2021, 22:29:33
Post #5

Девять Литров
*********
Group: Металариец
Posts: 962
Releases: 0
From: Днепр
On Forums: 6 years 11 months
Thanks: 561 time(s)
Unknown


Твоей силой Темный призываем неосознанно мы укрепиться , слушая все новое и брутальное, и да не призри молений экзальтированых сущностью нашей, а призри врагов наших ..
Приятственные и взошедшие нам ритмы мерой принятия и усиления гитарноэпинефриновых переборов , по всей линии динамического диапазона , эТсь измерения и риффы сразу расчищают МОСК и прописанны они четко и грамотно . Гниловатотухлые звукогорловые откровения вокалиста и низкие выплевы невежественной дури разрывают инсэ слышимого этого вида видов , а местами утверждающие вокальные прялки фальшивого почета неиствуют на протяжении всего альбома, и эмоцией негласны они и злы - ведь из-за колонок они гордо разбивают зеленые отрыжки молитво-доносов жалосливо-жалосливых - ,, глаголящих ртом дерьмо,, в нашем мире бытия .


Спасибо:
(2) Olethros, Samaritianin.


Thanks:
Go to the top of the page
  Insert nick Quick quote
+Quote Post
post May 26 2021, 18:28:31
Post #6

Литр
*
Group: Подсевший
Posts: 72
Releases: 0
From: Калуга
On Forums: 3 years 4 months
Thanks: 25 time(s)
Russian Federation


ЦИТАТА(Trava @ May 13 2021, 21:01:04) *
Привязал к писе гирьку и потягал, медленно раскачивая под качевые гитарки

и похрюкивая
Go to the top of the page
  Insert nick Quick quote
+Quote Post

Reply to this topicStart new topic
1 User(s) are reading this topic (1 Guests and 0 Anonymous Users)
0 Members:

 



- Lo-Fi Version Support form
Copyrights and abuse reports form
Time is now: 18th June 2021 - 13:49:57