Welcome Guest ( Log In | Register )

> Gumomaniacs - Morbid Tales Of Terror (2020), Thrash Metal
post May 13 2021, 03:11:03
Post #1

Правь статус, ####!111
**************
Group: Металариец
Posts: 26,693
Releases: 19243
From: Г.Харьков
On Forums: 9 years 2 months
Thanks: 385140 time(s)
Unknown


(IMG:https://metalarea.org/images/audiocovers/2021_May/acov_tid350798_thumb.jpg)

*Artist: Gumomaniacs
*Album: Morbid Tales Of Terror
*Year: 2020
*Genre: Thrash Metal
*Country: Germany (IMG:https://metalarea.org/forum/style_images/flags/Germany.png)
*Format: mp3@CBR320kbps
*Size: 98MB

Tracklist:
1. Bloodportals 03:44
2. Last Man Standing 04:50
3. Legions of Death 04:29
4. Of Warlords and Vengeance 02:49
5. The Architect 03:58
6. Morbid Tales of Terror 05:01
7. Asmodeus 02:45
8. For A Greater Cause 9. 04:15
9. Chamber of Souls 03:06
10. Valley of Wolves 03:49
11. Brimstone Baptism 03:25
******************************
Total playing time: 42:11




Extended info
Robert Hofmann Bass
See also: Upiór, ex-Metal Raign
Michael Hofmann Drums
See also: ex-Metal Raign
Daniel "Gumo" Reiß Guitars, Vocals
See also: Domination, ex-Thargos, ex-Wizzard





Technical info
(IMG:https://metalarea.org/images/spectrogram/2021_May/31457f242390bddb5d5bffbac4c3b577.png)
Input File: 06 - Morbid Tales of Terror.mp3
Channels : 2
Sample Rate : 44100
Precision : 16-bit
Duration : 00:05:01.00 = 13274100 samples = 22575 CDDA sectors
File Size : 12.2M
Bit Rate : 325k
Sample Encoding: MPEG audio (layer I, II or III)
Comments :
Title=Morbid Tales of Terror
Artist=GumoManiacs
Album=Morbid Tales of Terror
Tracknumber=6
Year=2020-11-22
Discnumber=1



Register


Go to the top of the page
  Insert nick Quick quote
+Quote Post
 
Start new topic
Replies (1 - 1)
post May 14 2021, 02:38:47
Post #2

Правь статус, ####!111
**************
Group: Металариец
Posts: 26,693
Releases: 19243
From: Г.Харьков
On Forums: 9 years 2 months
Thanks: 385140 time(s)
Unknown


FLAC (Tracks) 307 mb
Register


Go to the top of the page
  Insert nick Quick quote
+Quote Post

Reply to this topicStart new topic
2 User(s) are reading this topic (2 Guests and 0 Anonymous Users)
0 Members:

 



- Lo-Fi Version Support form
Copyrights and abuse reports form
Time is now: 29th July 2021 - 00:30:21