Welcome Guest ( Log In | Register )

> Releases Upload / Добавление релизов

Добавить релиз тут / Click here to add release
Рекомендованные обменники / Recommended file shares

> The Very End - Zeitgeist (2021), Melodic Death Metal (D6)
post May 13 2021, 11:03:21
Post #1

Четыре Литра
****
Group: Металариец
Posts: 395
Releases: 357
On Forums: 1 month 3 weeks
Thanks: 7203 time(s)
United States


(IMG:http://metalarea.org/images/audiocovers/2021_May/acov_tid350799_thumb.jpg)

*Artist: The Very End
*Album: Zeitgeist
*Year: 2021
*Genre: Melodic Death Metal
*Country: Germany (IMG:http://metalarea.org/forum/style_images/flags/Germany.png)
*Format: mp3@CBR320kbps
*Size: 121MB

Tracklist:
01. Teratoma
02. Light The Lows
03. On Parole
04. Zeitgeist
05. Truth & Tremor
06. Short Cuts Deep Wounds
07. Brave New Blood
08. Anechoic
09. The Day It All Went Black
10. Sorrow No More
11. From Boon To Bane
12. Until There's Nothing Left Of Us
******************************
Total playing time: 49:18



Technical info
(IMG:http://metalarea.org/images/spectrogram/2021_May/aa4a54ce839f2cca52295cc34dd5cfd4.png)
Input File: 02. Light the Lows.mp3
Channels : 2
Sample Rate : 44100
Precision : 16-bit
Duration : 00:03:56.84 = 10444732 samples = 17763.1 CDDA sectors
File Size : 9.52M
Bit Rate : 322k
Sample Encoding: MPEG audio (layer I, II or III)
Comments :
Title=Light the Lows
Artist=The Very End
Album=Zeitgeist
Tracknumber=2
Year=2021-05-14
Genre=Metal
Discnumber=1



Register


Go to the top of the page
  Insert nick Quick quote
+Quote Post
 
Start new topic
Replies (1 - 2)
post May 26 2021, 05:18:39
Post #2

Ъ
**************
Group: Металариец
Posts: 10,650
Releases: 9
On Forums: 12 years 5 months
Thanks: 2169 time(s)
Sweden


Пару раз послушать можно, есть неплохие места, в целом как были третьим эшелоном так им и остались.
Go to the top of the page
  Insert nick Quick quote
+Quote Post
post May 30 2021, 17:08:28
Post #3

Перевозчик
**************
Group: Металариец
Posts: 3,271
Releases: 0
On Forums: 12 years 11 months
Thanks: 735 time(s)
Russian Federation


Третий эшелон - не третий сорт!
Go to the top of the page
  Insert nick Quick quote
+Quote Post

Reply to this topicStart new topic
1 User(s) are reading this topic (1 Guests and 0 Anonymous Users)
0 Members:

 



- Lo-Fi Version Support form
Copyrights and abuse reports form
Time is now: 18th June 2021 - 12:01:33